Торрент файл
скачать торрент магнет ссылка Добавлен: 03 фев 2013, 16:13
Размер: 1.46 ГБ
Сидеров: 23
Личеров: 5
Статус: (salma3)
Автор

СообщениеДобавлено: 03 фев 2013, 16:13 

Не в сети
Супермодератор
Аватара пользователя
Дата регистрации:
15 фев 2012, 16:44
Возраст: 27
Спасибо: 5121 / 2089
Сообщения: 17282

Сахара / Sahara

Год выхода: 1995
Жанр: Боевик, Военный
Режиссер: Брайан Тренчард-Смит / Brian Trenchard-Smith
В ролях: Джеймс Белуши /James Belushi, Элан Дэвид Ли, Саймон Уэстэуэй /Simon Westaway, Марк Ли /Mark Lee, Майкл Мэсси /Michael Massee, Роберт Уиздом /Robert Wisdom, Анджело Д'Анджело, Пол Эмпсон...

О фильме:
Северная Африка, 1942 год. После боев с армией немецкого генерала Роммеля от танкового батальона, в котором воюет Белуши, осталась только его любимая машина по имени Бель Лу. Отступать можно только на юг, так как остальные стороны света перекрыты противником. Захватив остатки, среди которых помимо американцев, француз, австралиец, медик-англичанин, чернокожий суданец британской армии, да пленный итальянец, сержант Белуши ведет танк в раскаленные пески Сахары в поисках воды. Они находят полупересохший колодец, к которому по их следу идет отряд в 500 немцев, изнемогающих от жажды. Вскоре вода кончается. Но фляги наполнены, и можно уходить, оставив немцам пересохший колодец. Но Белуши решает принять бой, который может позволить перегруппироваться войскам союзников. Немцы, думая, что вода в колодце есть, отчаянно атакуют снова и снова. Редко попадаются такие захватывающие и лихие военные картины.


Страна: США, Австралия
Продолжительность: 1:45:54
Перевод: Профессиональный (многоголосый закадровый) [HTB+]

Файл
Кодек: Xvid
Качество: DVDRip
Видео: 704x528, 23.976 fps, 1771 Kbps
Звук: AC3, 2 ch, 192.00 kbps, 48.0 khz
General
Complete name : SAHARA.1995.DVDRip.avi
Format : AVI
Format/Info : Audio Video Interleave
File size : 1.46 GiB
Duration : 1h 46mn
Overall bit rate : 1 972 Kbps
Writing application : VirtualDubMod 1.5.10.3 | http://www.virtualdub-fr.org || (build 2550/release)
Writing library : VirtualDubMod build 2550/release

Video
ID : 0
Format : MPEG-4 Visual
Format profile : Advanced Simple@L5
Format settings, BVOP : 1
Format settings, QPel : No
Format settings, GMC : No warppoints
Format settings, Matrix : Custom
Codec ID : XVID
Codec ID/Hint : XviD
Duration : 1h 46mn
Bit rate : 1 771 Kbps
Width : 704 pixels
Height : 528 pixels
Display aspect ratio : 4:3
Frame rate : 23.976 fps
Color space : YUV
Chroma subsampling : 4:2:0
Bit depth : 8 bits
Scan type : Progressive
Compression mode : Lossy
Bits/(Pixel*Frame) : 0.199
Stream size : 1.31 GiB (90%)
Writing library : XviD 73

Audio
ID : 1
Format : AC-3
Format/Info : Audio Coding 3
Mode extension : CM (complete main)
Format settings, Endianness : Big
Codec ID : 2000
Duration : 1h 46mn
Bit rate mode : Constant
Bit rate : 192 Kbps
Channel(s) : 2 channels
Channel positions : Front: L R
Sampling rate : 48.0 KHz
Bit depth : 16 bits
Compression mode : Lossy
Stream size : 146 MiB (10%)
Alignment : Split accross interleaves
Interleave, duration : 42 ms (1.00 video frame)
Interleave, preload duration : 500 ms



Релиз от: Leon-masl




реклама партнёра


Вернуться к началу
 Профиль Отправить личное сообщение  
 
   Похожие торренты   Автор   Торрент   Размер 
В этой теме нет новых непрочитанных сообщений. Sahara Snow - Sahara Snow [1997, Melodic Rock,AOR, MP3]

PriZraK

0 | 1

125.17 МБ

В этой теме нет новых непрочитанных сообщений. Храброе сердце / Braveheart [боевик, драма, военный, биография, история, 1995] Blu-Ray, Dub+Sub [Лицензия]

salma3

61 | 67

37.24 ГБ

В этой теме нет новых непрочитанных сообщений. Цена сахара / Hoe Duur was de Suiker (Жан ван Де Вельде) [2013, Драма, история, приключения, HDRip] avo

Nickolas3435

371 | 21

2.05 ГБ

В этой теме нет новых непрочитанных сообщений. Стрелок / The Shooter [Боевик, 1995] DVDRip, Mvo

salma3

106 | 9

1.45 ГБ

В этой теме нет новых непрочитанных сообщений. Дон / Босс / The Don [боевик, мелодрама, 1995] DVDRip, Avo

salma3

1 | 4

1.46 ГБ

В этой теме нет новых непрочитанных сообщений. Sahara Rain - Eternity [2011, Melodic, Hard-n-Heavy Metal, MP3]

PriZraK

0 | 1

86.71 МБ

В этой теме нет новых непрочитанных сообщений. Прощения нет / Blood of the Innocent [Боевик, 1995] DVDRip, Avo

salma3

16 | 2

742.92 МБ


Начать новую тему Ответить на тему  [ 1 сообщение ] 




Для Мосгорсуда, Роскомнадзора и рекламодателей:: mosgorsud-torrent[собачка]yandex.ru