Торрент файл
скачать торрент магнет ссылка Добавлен: 02 фев 2013, 15:24
Размер: 1.45 ГБ
Сидеров: 0
Личеров: 2
Автор

СообщениеДобавлено: 02 фев 2013, 15:24 

Не в сети
Зам. Админа
Аватара пользователя
Дата регистрации:
02 дек 2010, 12:39
Спасибо: 12461 / 214
Сообщения: 27968

Страна: США
Жанр:Триллер, драма, история
Год выпуска: 2012
Продолжительность: 02:00:20
Перевод: Профессиональный (дублированный)
Режиссер: Бен Аффлек / Ben Affleck

В ролях: Бен Аффлек, Брайан Крэнстон, Алан Аркин, Джон Гудмен, Виктор Гарбер, Тейт Донован, Клеа Дюваль, Скут МакНэйри, Рори Кокрейн, Кристофер Денхам

Описание: 4 ноября 1979 г. революция в Иране достигает своего апогея, военные штурмуют посольство США в Тегеране и берут в заложники 52 американца. Но в этом хаосе шестерым удается ускользнуть и найти прибежище в доме канадского посла. Понимая, что их обнаружение и, вероятнее всего, убийство — всего лишь вопрос времени, Тони Мендес, специалист ЦРУ по тайному вывозу людей из страны, предлагает рискованный план безопасной эвакуации. План столь невероятен, что такое бывает только в кино.
релиз от:
Формат: MKV
Качество: HDRip-AVC
ВидеоMPEG4 Video (H264) 720x304 (725:304) 23.976fps
Аудио: Dolby AC3 48000Hz 6ch 448kbps

Семпл

General
Unique ID : 211866764321230358075570505516261928046 (0x9F640DF7D1AF46B7BB66640E7B3D6C6E)
Complete name : D:\torrent\Арго.2012.D.mkv
Format : Matroska
Format version : Version 2
File size : 1.45 GiB
Duration : 2h 0mn
Overall bit rate : 1 730 Kbps
Writing application : XviD4PSP 6.0 / 53.6.0
Writing library : XviD4PSP 6.0 / 53.6.0

Video
ID : 1
Format : AVC
Format/Info : Advanced Video Codec
Format profile : High@L4.1
Format settings, CABAC : Yes
Format settings, ReFrames : 3 frames
Codec ID : V_MPEG4/ISO/AVC
Duration : 2h 0mn
Bit rate : 1 247 Kbps
Nominal bit rate : 1 314 Kbps
Width : 720 pixels
Height : 304 pixels
Display aspect ratio : 2.40:1
Original display aspect ratio : 2.40:1
Frame rate mode : Variable
Frame rate : 23.976 fps
Color space : YUV
Chroma subsampling : 4:2:0
Bit depth : 8 bits
Scan type : Progressive
Bits/(Pixel*Frame) : 0.238
Stream size : 1.05 GiB (72%)
Title : Argo.2012.720p.BluRay.x264-SPARKS
Writing library : x264 core 116 r2019M 9cc407d
Encoding settings : cabac=1 / ref=3 / deblock=1:-1:-1 / analyse=0x3:0x133 / me=hex / subme=7 / psy=1 / psy_rd=1.00:0.15 / mixed_ref=1 / me_range=16 / chroma_me=1 / trellis=1 / 8x8dct=1 / cqm=0 / deadzone=21,11 / fast_pskip=1 / chroma_qp_offset=-3 / threads=8 / sliced_threads=0 / nr=0 / decimate=1 / interlaced=0 / bluray_compat=0 / constrained_intra=0 / bframes=3 / b_pyramid=1 / b_adapt=2 / b_bias=0 / direct=3 / weightb=1 / open_gop=0 / weightp=2 / keyint=230 / keyint_min=23 / scenecut=40 / intra_refresh=0 / rc_lookahead=40 / rc=abr / mbtree=1 / bitrate=1314 / ratetol=1.0 / qcomp=0.60 / qpmin=10 / qpmax=51 / qpstep=4 / ip_ratio=1.40 / aq=1:1.00
Language : English
Default : Yes
Forced : No

Audio
ID : 2
Format : AC-3
Format/Info : Audio Coding 3
Mode extension : CM (complete main)
Codec ID : A_AC3
Duration : 2h 0mn
Bit rate mode : Constant
Bit rate : 448 Kbps
Channel(s) : 6 channels
Channel positions : Front: L C R, Side: L R, LFE
Sampling rate : 48.0 KHz
Bit depth : 16 bits
Compression mode : Lossy
Stream size : 386 MiB (26%)
Title : DD 5.1 @ 384 kbps - Dub, R5
Language : Russian
Default : Yes
Forced : No





реклама партнёра


Вернуться к началу
 Профиль  
 
   Похожие торренты   Автор   Торрент   Размер 
В этой теме нет новых непрочитанных сообщений. Пятая власть / The Fifth Estate [Триллер, драма, биография, 2013] HDRip, Dub [Лицензия]

Dracon

715 | 8

2.05 ГБ

В этой теме нет новых непрочитанных сообщений. Шпионский мост / Bridge of Spies [триллер, драма, биография, история, 2015] HDRip, dub [лицензия]

Dracon

1431 | 77

1.45 ГБ

В этой теме нет новых непрочитанных сообщений. Операция Негодяй / Операция Возмездие / Operation Rogue [боевик, 2014] DVDRip, Mvo [Лицензия]

salma3

865 | 17

1.37 ГБ

В этой теме нет новых непрочитанных сообщений. Игра в имитацию / The Imitation Game (Мортен Тильдум) [триллер, драма, военный, биография, 2014] HDRip, Dub [Лицензия]

Dracon

49 | 3

2.06 ГБ

В этой теме нет новых непрочитанных сообщений. Операция «Мертвый снег» 2 / Død Snø 2 [ужасы, боевик, комедия, 2014] HDRip, Dub [лицензия]

salma3

998 | 32

1.46 ГБ

В этой теме нет новых непрочитанных сообщений. Распутин [Драма, биография, история, 2013] HDRip [лицензия]

Dracon

49 | 19

1.37 ГБ

В этой теме нет новых непрочитанных сообщений. Операция «Мертвый снег» 2 / Dod Sno 2 [ужасы, триллер, 2014] BDRip 720p, Mvo [лицензия]

Dracon

2 | 2

4.15 ГБ


Начать новую тему Ответить на тему  [ 1 сообщение ] 




Для Мосгорсуда, Роскомнадзора и рекламодателей:: mosgorsud-torrent[собачка]yandex.ru