Торрент файл
скачать торрент магнет ссылка Добавлен: 02 фев 2013, 13:00
Размер: 1.48 ГБ
Сидеров: 0
Личеров: 2
Автор

СообщениеДобавлено: 02 фев 2013, 13:00 

Не в сети
Зам. Админа
Аватара пользователя
Дата регистрации:
02 дек 2010, 12:39
Спасибо: 12461 / 214
Сообщения: 27968

Год выпуска: 2012
Жанр:Боевик, триллер, криминал, приключения
Режиссер: Сэм Мендес
В ролях: Дэниэл Крэйг, Хавьер Бардем, Джуди Денч, Рэйф Файнс, Бен Уишоу, Наоми Харрис, Альберт Финни, Беренис Марло, Хелен МакКрори, Тония Сотиропулу, Рори Киннер, Ола Рапас, Николас Вудесон, Уильям Бакхерст, Элиз дю Ту, Йен Бонар, Гордон Милн, Питер Башам, Бен Лойд-Холмс, Вульф Блицер, Дэвид Гиллис, Джеймс Ли, Кеннет Хэзелдайн, Орион Ли, Дейв Вон, Тэнк Донг, Роджер Йуан, Лианг Янг, Еннис Чун-Ян, Чойе Бэй, Сид Мэн, Анджела Трэн, Миодраг Капор, Хув Эдвардс, Адебайо Боладжи, Элиа Ло Тауро, Амир Бутрус, Хан Бонфилс, Николас Го, Джон Ходжкинсон, Курт Эгиаван, Оливер Джонстоун, Гарри Кершоу, Берт Цезар, Пол Венаблс, Криспин Леттс

О фильме:
Лояльность Бонда своей начальнице М под угрозой со стороны ее прошлого, которое внезапно даст о себе знать. MI6 подвергается нападению, и агент 007 должен ликвидировать угрозу, несмотря на цену, которую придется заплатить.


Страна: Великобритания, США, Metro-Goldwyn-Mayer (MGM)
Продолжительность: 02:23:09
Перевод: Дублированный [Лицензия]
релиз от:
Формат: MKV
Качество: HDRip-AVC
Видео: MPEG4 Video (H264) 720x304 (729:304) 23.976fps
Аудио: Dolby AC3 48000Hz 6ch 384kbps

Семпл

General
Unique ID : 50432877065972353309134850184637022920 (0x25F104D0E1F28D653FF89D6BC38382C8)
Format : Matroska
Format version : Version 2
File size : 1.48 GiB
Duration : 2h 23mn
Overall bit rate : 1 481 Kbps
Writing application : XviD4PSP 6.0 / 53.6.0
Writing library : XviD4PSP 6.0 / 53.6.0

Video
ID : 1
Format : AVC
Format/Info : Advanced Video Codec
Format profile : High@L4.1
Format settings, CABAC : Yes
Format settings, ReFrames : 3 frames
Codec ID : V_MPEG4/ISO/AVC
Duration : 2h 23mn
Bit rate : 1 035 Kbps
Width : 720 pixels
Height : 304 pixels
Display aspect ratio : 2.40:1
Original display aspect ratio : 2.40:1
Frame rate mode : Variable
Frame rate : 23.976 fps
Color space : YUV
Chroma subsampling : 4:2:0
Bit depth : 8 bits
Scan type : Progressive
Bits/(Pixel*Frame) : 0.197
Stream size : 1.00 GiB (68%)
Writing library : x264 core 116 r2019M 9cc407d
Encoding settings : cabac=1 / ref=3 / deblock=1:-1:-1 / analyse=0x3:0x133 / me=hex / subme=7 / psy=1 / psy_rd=1.00:0.15 / mixed_ref=1 / me_range=16 / chroma_me=1 / trellis=1 / 8x8dct=1 / cqm=0 / deadzone=21,11 / fast_pskip=1 / chroma_qp_offset=-3 / threads=8 / sliced_threads=0 / nr=0 / decimate=1 / interlaced=0 / bluray_compat=0 / constrained_intra=0 / bframes=3 / b_pyramid=1 / b_adapt=2 / b_bias=0 / direct=3 / weightb=1 / open_gop=0 / weightp=2 / keyint=230 / keyint_min=23 / scenecut=40 / intra_refresh=0 / rc_lookahead=40 / rc=abr / mbtree=1 / bitrate=1035 / ratetol=1.0 / qcomp=0.60 / qpmin=10 / qpmax=51 / qpstep=4 / ip_ratio=1.40 / aq=1:1.00
Language : English
Default : Yes
Forced : No

Audio
ID : 2
Format : AC-3
Format/Info : Audio Coding 3
Mode extension : CM (complete main)
Codec ID : A_AC3
Duration : 2h 23mn
Bit rate mode : Constant
Bit rate : 448 Kbps
Channel(s) : 6 channels
Channel positions : Front: L C R, Side: L R, LFE
Sampling rate : 48.0 KHz
Bit depth : 16 bits
Compression mode : Lossy
Stream size : 459 MiB (30%)
Language : Russian
Default : Yes
Forced : No





реклама партнёра


Вернуться к началу
 Профиль  
 
   Похожие торренты   Автор   Торрент   Размер 
В этой теме нет новых непрочитанных сообщений. Шпионские страсти / Был Один Тигр / Ek Tha Tiger [боевик, триллер, 2012] НDRip, Mvo [SDI Media]

salma3

1 | 1

1.45 ГБ

В этой теме нет новых непрочитанных сообщений. Петля времени / Looper [фантастика, боевик, триллер, криминал, 2012] BDRip 720p, Dub+Avo [Лицензия]

salma3

74 | 4

4.37 ГБ

В этой теме нет новых непрочитанных сообщений. Абсолютная власть / Imperium [триллер, драма, криминал, 2016] НDRip, Mvo

marya111

0 | 1

2.04 ГБ

В этой теме нет новых непрочитанных сообщений. Драконы Нью-Йорка / Revenge of the Green Dragons (Вэй Кеунг Лау, Эндрю Лу) [Боевик, драма, криминал, 2014] НDRip, Dvo

Dracon

414 | 13

1.37 ГБ

В этой теме нет новых непрочитанных сообщений. Драконы Нью-Йорка / Revenge of the Green Dragons (Вэй Кеунг Лау, Эндрю Лу) [Боевик, драма, криминал, 2014] НDRip, dub [Чистый звук]

Dracon

5534 | 265

1.37 ГБ

В этой теме нет новых непрочитанных сообщений. За кадром... / In a World... (Лэйк Белл) [2013, комедия, НDRip | Лицензия] mvo

Nickolas3435

50 | 4

744.92 МБ

В этой теме нет новых непрочитанных сообщений. Джо / Joe [боевик, триллер, драма, криминал, 2013] BDRip 720p, Mvo+Sub [лицензия]

Dracon

674 | 31

5.83 ГБ


СообщениеДобавлено: 10 фев 2013, 11:35 

Не в сети
Дата регистрации:
27 май 2012, 15:52
Спасибо: 0 / 171
Сообщения: 1
Где русская дорожка???


Вернуться к началу
 Профиль Отправить личное сообщение  
 
Начать новую тему Ответить на тему  [ Сообщений: 2 ] 




Для Мосгорсуда, Роскомнадзора и рекламодателей:: mosgorsud-torrent[собачка]yandex.ru