Торрент файл
скачать торрент магнет ссылка Добавлен: 30 янв 2013, 20:15
Размер: 1.38 ГБ
Сидеров: 0
Личеров: 3
Автор

СообщениеДобавлено: 30 янв 2013, 20:16 

Не в сети
Зам. Админа
Аватара пользователя
Дата регистрации:
02 дек 2010, 12:39
Спасибо: 12461 / 214
Сообщения: 27968

Год выхода: 2012
Жанр: Драма, криминал
Режиссер: Джон Хиллкоут
В ролях: Шайа ЛаБаф, Том Харди, Гари Олдман, Джессика Честейн, Гай Пирс, Джейсон Кларк, Миа Васиковска, Дэйн ДеХаан, Крис МакГарри

О фильме:
Действие в картине разворачивается на американском Юге во времена сухого закона и Великой Депрессии. В центре сюжета — семья Бондурант, три брата, Джек, Форрест и Говард, которые занимаются запрещенным в то время бизнесом, бутлегерством. Оптимистично настроенный Джек, самый молодой из братьев, надеется с помощью бутлегерства заработать денег и произвести впечатление на свою девушку Берту. В это же время Форрест, напротив, настроен очень мрачно, он молчалив и подозрителен, а Говарду к тому же часто приходится иметь дело с врагами незаконного семейного бизнеса, в лице которых выступают коррумпированные местные полицейские.



Страна: США
Продолжительность: 01:55:45
Перевод: Дублированный [Лицензия]
релиз от:
Формат: MKV
Качество: HDRip-AVC
ВидеоMPEG4 Video (H264) 720x304 (91:38) 23.976fps
Аудио: Dolby AC3 48000Hz 6ch 384kbps
Субтитры: UTF-8 [Russian (Subtitle 1)]

Семпл

General
Unique ID : 173504430849194972398715291394208862637 (0x8287BCE612A587692B66FF5C25AE91AD)
Complete name : D:\torrent\ Самый пьяный округ в мире.2012.D.mkv
Format : Matroska
Format version : Version 2
File size : 1.38 GiB
Duration : 1h 55mn
Overall bit rate : 1 705 Kbps
Movie name : Lawless (2012) - Release for HDCLUB by doclogan
Writing application : XviD4PSP 6.0 / 53.6.0
Writing library : XviD4PSP 6.0 / 53.6.0

Video
ID : 1
Format : AVC
Format/Info : Advanced Video Codec
Format profile : High@L4.1
Format settings, CABAC : Yes
Format settings, ReFrames : 3 frames
Codec ID : V_MPEG4/ISO/AVC
Duration : 1h 55mn
Bit rate : 1 287 Kbps
Nominal bit rate : 1 366 Kbps
Width : 720 pixels
Height : 304 pixels
Display aspect ratio : 2.40:1
Original display aspect ratio : 2.40:1
Frame rate mode : Variable
Frame rate : 23.976 fps
Color space : YUV
Chroma subsampling : 4:2:0
Bit depth : 8 bits
Scan type : Progressive
Bits/(Pixel*Frame) : 0.245
Stream size : 1.04 GiB (75%)
Title : Release for HDCLUB by doclogan
Writing library : x264 core 116 r2019M 9cc407d
Encoding settings : cabac=1 / ref=3 / deblock=1:-1:-1 / analyse=0x3:0x133 / me=hex / subme=7 / psy=1 / psy_rd=1.00:0.15 / mixed_ref=1 / me_range=16 / chroma_me=1 / trellis=1 / 8x8dct=1 / cqm=0 / deadzone=21,11 / fast_pskip=1 / chroma_qp_offset=-3 / threads=8 / sliced_threads=0 / nr=0 / decimate=1 / interlaced=0 / bluray_compat=0 / constrained_intra=0 / bframes=3 / b_pyramid=1 / b_adapt=2 / b_bias=0 / direct=3 / weightb=1 / open_gop=0 / weightp=2 / keyint=230 / keyint_min=23 / scenecut=40 / intra_refresh=0 / rc_lookahead=40 / rc=abr / mbtree=1 / bitrate=1366 / ratetol=1.0 / qcomp=0.60 / qpmin=10 / qpmax=51 / qpstep=4 / ip_ratio=1.40 / aq=1:1.00
Language : English
Default : Yes
Forced : No

Audio
ID : 2
Format : AC-3
Format/Info : Audio Coding 3
Mode extension : CM (complete main)
Codec ID : A_AC3
Duration : 1h 55mn
Bit rate mode : Constant
Bit rate : 384 Kbps
Channel(s) : 6 channels
Channel positions : Front: L C R, Side: L R, LFE
Sampling rate : 48.0 KHz
Bit depth : 16 bits
Compression mode : Lossy
Stream size : 318 MiB (23%)
Language : Russian
Default : Yes
Forced : No

Text
ID : 3
Format : UTF-8
Codec ID : S_TEXT/UTF8
Codec ID/Info : UTF-8 Plain Text
Language : Russian
Default : Yes
Forced : No





реклама партнёра


Вернуться к началу
 Профиль  
 
   Похожие торренты   Автор   Торрент   Размер 
В этой теме нет новых непрочитанных сообщений. Округ беззакония / Lawless Range [Драма, вестерн, 2016] WEB-DLRip, dvo

Dracon

245 | 13

1.38 ГБ

В этой теме нет новых непрочитанных сообщений. Голод / The Donner Party [триллер, вестерн, драма, 2009] HDRip, Mvo [Лицензия]

salma3

13 | 5

1.46 ГБ

В этой теме нет новых непрочитанных сообщений. Спасение / The Salvation (Кристиан Левринг) [драма, вестерн, 2014] HDRip, Dub [Лицензия]

Dracon

0 | 0

1.37 ГБ

В этой теме нет новых непрочитанных сообщений. Хозяин джунглей / El Ardor (Пабло Фендрик) [драма, вестерн, 2014] HDRip, Mvo [Лицензия]

Dracon

263 | 13

1.45 ГБ

В этой теме нет новых непрочитанных сообщений. Ничья земля / Wu ren qu [триллер, криминал, боевик, приключения, драма, вестерн, 2013] HDRip, Dvo+Sub

salma3

38 | 2

1.46 ГБ

В этой теме нет новых непрочитанных сообщений. Все меры предосторожности / Extreme Prejudice [боевик, драма, криминал, вестерн, 1987] HDRip, 2Avo

salma3

23 | 0

1.48 ГБ

В этой теме нет новых непрочитанных сообщений. Пьяный мастер 2 / Jui kuen II [боевик, комедия, 1994] HDRip, Mvo

salma3

34 | 1

1.46 ГБ


Начать новую тему Ответить на тему  [ 1 сообщение ] 




Для Мосгорсуда, Роскомнадзора и рекламодателей:: mosgorsud-torrent[собачка]yandex.ru