Торрент файл
скачать торрент магнет ссылка Добавлен: 30 янв 2013, 16:09
Размер: 745.06 МБ
Сидеров: 4
Личеров: 3
Статус: (salma3)
Автор

СообщениеДобавлено: 30 янв 2013, 16:09 

В сети
Супермодератор
Аватара пользователя
Дата регистрации:
15 фев 2012, 16:44
Возраст: 28
Спасибо: 6577 / 2143
Сообщения: 43941
Страна: США
Жанр:драма, мелодрама
Год выпуска: 1998
Продолжительность: 01:59:23
Перевод: Профессиональный (многоголосый закадровый)
Оригинальная аудиодорожка: нет
Cубтитры: нет
Режиссер: Кевин Родни Салливан / Kevin Rodney Sullivan
В ролях: Анжела Бассетт / Angela Bassett /, Тэй Диггз / Taye Diggs /, Вупи Голдберг / Whoopi Goldberg /, Реджина Кинг / Regina King /, Сьюззанн Дуглас / Suzzanne Douglas...

Описание:
Стелла Пэйн, преуспевающая бизнес-леди, давно забыла, когда в последний раз была в отпуске. Ее лучшая подруга Делайла решает исправить такое ненормальное положение дел. И поддавшись спонтанному порыву, они отправляются на Ямайку к прекрасному голубому морю и белому песку.
Романтической настроение витает здесь в воздухе. И вскоре Стелла знакомится с молодым чернокожим красавцем. Парень — предел всех мечтаний. И Стелла с удивлением понимает, что ее сердце открыто для любви. Единственное, что смущает, — 20-летняя разница в возрасте...




Исходник: DVD9 R5
Тип релиза: DVDRip
Контейнер: AVI
Видео: 624x336 (1,857:1), 25 fps, XviD ~ 735 kbps avg, 0.140 bit/pixel
Аудио: 48 kHz, Dolby MP3 2.0, 128 kbps

Раздача от:

Общее
Полное имя: Uvlechenija.Stelly.1998.DVDRip-745_[Youtracker]_by_AVP Studio.avi
Формат: AVI
Формат/Информация: Audio Video Interleave
Размер файла: 745 Мбайт
Продолжительность: 1 ч. 59 м.
Общий поток: 873 Кбит/сек
Программа кодирования: VirtualDubMod 1.5.10.3 | http://www.virtualdub-fr.org || (build 2550/release)
Библиотека кодирования: VirtualDubMod build 2550/release

Видео
Идентификатор: 0
Формат: MPEG-4 Visual
Профиль формата: Advanced Simple@L5
Параметр BVOP формата: 1
Параметр QPel формата: Нет
Параметр GMC формата: Без точки перехода
Параметр матрицы формата: Выборочная
Идентификатор кодека: XVID
Идентификатор кодека/Подсказка: XviD
Продолжительность: 1 ч. 59 м.
Битрейт: 735 Кбит/сек
Ширина: 624 пикселя
Высота: 336 пикселей
Соотношение сторон: 1,857
Частота кадров: 25,000 кадров/сек
Цветовое пространство: YUV
Субдискретизация насыщенности: 4:2:0
Битовая глубина: 8 бит
Тип развёртки: Прогрессивная
Метод сжатия: С потерями
Бит/(Пиксели*Кадры): 0.140
Размер потока: 627 Мбайт (84%)
Библиотека кодирования: XviD 65

Аудио
Идентификатор: 1
Формат: MPEG Audio
Версия формата: Version 1
Профиль формата: Layer 3
Идентификатор кодека: 55
Идентификатор кодека/Подсказка: MP3
Продолжительность: 1 ч. 59 м.
Вид битрейта: Постоянный
Битрейт: 128 Кбит/сек
Каналы: 2 канала
Частота: 48,0 КГц
Метод сжатия: С потерями
Размер потока: 109 Мбайт (15%)
Выравнивание: Соединение по промежуткам
Продолжительность промежутка: 40мс. (1,00 видеокадр)
Время предзагрузки промежутка: 504мс.
Библиотека кодирования: L3.99r
Настройки программы: -m s -V 4 -q 2 -lowpass 17 -b 128







реклама партнёра


Вернуться к началу
 Профиль Отправить личное сообщение  
 
   Похожие торренты   Автор   Торрент   Размер 
В этой теме нет новых непрочитанных сообщений. Увлечение Стеллы / How Stella Got Her Groove Back [Мелодрама, 1998] WEB-DLRip 720p, Mvo

salma3

10 | 5

5.74 ГБ

В этой теме нет новых непрочитанных сообщений. До мозга костей / Мимолетное увлечение / Skin Deep [драма, мелодрама, комедия, 1989] DVDRip, Avo

salma3

42 | 9

726.35 МБ

В этой теме нет новых непрочитанных сообщений. Stella Cox / Big Tit Cam Girl Stella Cox Fucks a Lucky Viewer (2016) HD 720p

Dile-1

6 | 8

918.4 МБ

В этой теме нет новых непрочитанных сообщений. Stella Cox Nymphomaniac / Stella Cox Нимфоманка (Gazzman / Harmony Films) [2015 г., Anal, DP, Gonzo, Threesome, Strap-On, Lesbian, 540p, WEB-DL](Split Scenes)

salma3

18 | 6

1.79 ГБ

В этой теме нет новых непрочитанных сообщений. Stella Cox - Stella Cox loves her feet almost as much as she loves BBC. (2017) HD 1080p

salma3

0 | 0

2.66 ГБ

В этой теме нет новых непрочитанных сообщений. [Bang! Gonzo / Bang.com] Stella Cox (Stella Cox Takes Manuel Ferrara's Huge Dick In All Anal Gonzo Film / 07.08.17) [2017 г., All Sex, Anal, 1080p (FullHD)]

salma3

21 | 7

3.58 ГБ

В этой теме нет новых непрочитанных сообщений. Роскошные подружки накинулись на здоровенный член / Lena Paul, Angela White (Lena Gets Her Groove Back) (2016) SiteRip

salma3

3 | 0

320.66 МБ


Начать новую тему Ответить на тему  [ 1 сообщение ] 




Для Мосгорсуда, Роскомнадзора и рекламодателей:: mosgorsud-torrent[собачка]yandex.ru