Торрент файл
скачать торрент магнет ссылка Добавлен: 30 янв 2013, 15:39
Размер: 1.45 ГБ
Сидеров: 1
Личеров: 2
Автор

СообщениеДобавлено: 30 янв 2013, 15:39 

Не в сети
Зам. Админа
Аватара пользователя
Дата регистрации:
02 дек 2010, 12:39
Спасибо: 12623 / 214
Сообщения: 28012
Год выпуска: 2011
Страна: США, Arramis Films Inc., Royalty Rope
Жанр: Детектив
Продолжительность: 01:33:57
Перевод: Профессиональный (многоголосый, закадровый) НТВ+
Субтитры: нет

Режиссер: Люциус К. Куэрт / Lucius К. Kuerten

В ролях: Роберт Миано, Дэнни Гловер, Мартин Ландау, Билли Зейн, Майкл Рукер, Медоу Уильямс, Питер Марк Ричман, Сильвия Спросс, Карлуччи Уэйэнт, Дэвид Беар

Описание: Обстоятельства в жизни героя картины «Мистерия» вдруг складываются так, что он оказывает в центре расследования убийства, в котором замешана также жена крупного политического деятеля. Мужчина решает не терять времени даром, и использовать события, разворачивающиеся вокруг него, для своего сценария.

Качество: HDRip
Формат: AVI
Видео кодек: XviD
Аудио кодек: AC3
Видео: 720x304 (2.37:1), 23.976 fps, XviD build 50 ~1944 kbps avg, 0.37 bit/pixel
Аудио: 48 kHz, AC3 Dolby Digital, 2/0 (L,R) ch, ~256 kbps
Misteriya.2011.P.HDRip.avi
Format : AVI
Format/Info : Audio Video Interleave
File size : 1.45 GiB
Duration : 1h 33mn
Overall bit rate : 2 210 Kbps
Writing application : VirtualDubMod 1.5.10.2 (build 2540/release)
Writing library : VirtualDubMod build 2540/release

Video
ID : 0
Format : MPEG-4 Visual
Format profile : Advanced Simple@L5
Format settings, BVOP : 2
Format settings, QPel : No
Format settings, GMC : No warppoints
Format settings, Matrix : Default (MPEG)
Codec ID : XVID
Codec ID/Hint : XviD
Duration : 1h 33mn
Bit rate : 1 945 Kbps
Width : 720 pixels
Height : 304 pixels
Display aspect ratio : 2.35:1
Frame rate : 23.976 fps
Color space : YUV
Chroma subsampling : 4:2:0
Bit depth : 8 bits
Scan type : Progressive
Compression mode : Lossy
Bits/(Pixel*Frame) : 0.371
Stream size : 1.28 GiB (88%)
Writing library : XviD 1.2.1 (UTC 2008-12-04)

Audio
ID : 1
Format : AC-3
Format/Info : Audio Coding 3
Mode extension : CM (complete main)
Format settings, Endianness : Big
Codec ID : 2000
Duration : 1h 33mn
Bit rate mode : Constant
Bit rate : 256 Kbps
Channel(s) : 2 channels
Channel positions : Front: L R
Sampling rate : 48.0 KHz
Bit depth : 16 bits
Compression mode : Lossy
Stream size : 172 MiB (12%)
Alignment : Split accross interleaves
Interleave, duration : 42 ms (1.00 video frame)
Interleave, preload duration : 500 ms




реклама партнёра


Вернуться к началу
 Профиль  
 
   Похожие торренты   Автор   Торрент   Размер 
В этой теме нет новых непрочитанных сообщений. Крик 4 / Scream 4 [ужасы, детектив, 2011] HDRip-AVC, Dub

salma3

33 | 12

744.99 МБ

В этой теме нет новых непрочитанных сообщений. Шпион, выйди вон! / Tinker Tailor Soldier Spy [триллер, детектив, 2011] HDRip, Dub

salma3

229 | 32

1.45 ГБ

В этой теме нет новых непрочитанных сообщений. Ханна. Совершенное оружие / Hanna [боевик, триллер, детектив, 2011] HDRip, Dub

salma3

189 | 15

1.46 ГБ

В этой теме нет новых непрочитанных сообщений. Детектив Бёмкеш Бакши! / Detective Byomkesh Bakshy! [Триллер, детектив, 2015] HDRip, Dvo

salma3

173 | 13

1.46 ГБ

В этой теме нет новых непрочитанных сообщений. Леди-детектив мисс Фрайни Фишер / Miss Fisher's Murder Mysteries [S01-02] [драма, криминал, детектив, 2012-2013] DVDRip, HDRip, Mvo

salma3

151 | 102

15.92 ГБ

В этой теме нет новых непрочитанных сообщений. Где-то там / Elsewhere [триллер, детектив, драма, 2009] HDRip, Dvo

salma3

146 | 75

1.46 ГБ

В этой теме нет новых непрочитанных сообщений. Сэм был здесь / Sam Was Here [ужасы, триллер, детектив, 2016] HDRip, Avo

salma3

184 | 141

780.59 МБ


Начать новую тему Ответить на тему  [ 1 сообщение ] 




Для Мосгорсуда, Роскомнадзора и рекламодателей:: mosgorsud-torrent[собачка]yandex.ru