Торрент файл
скачать торрент магнет ссылка Добавлен: 30 янв 2013, 10:57
Размер: 1.38 ГБ
Сидеров: 0
Личеров: 2
Автор

СообщениеДобавлено: 30 янв 2013, 10:57 

Не в сети
Зам. Админа
Аватара пользователя
Дата регистрации:
02 дек 2010, 12:39
Спасибо: 12569 / 214
Сообщения: 28057

Год выхода: 2012
Жанр: Драма, мелодрама
Режиссер: Брайан Клагман, Ли Стернтал
В ролях: Брэдли Купер, Джереми Айронс, Оливия Уайлд, Зои Салдана, Деннис Куэйд, Брайан Клагман, Джон Ханна, Вито Филлипо, Майкл МакКин, Люсинда Дэвис

О фильме:
Рори Джэнсен — писатель, который наконец обретает долгожданную известность, но его роман-бестселлер оказывается написан другим человеком, которому он теперь должен заплатить высокую цену за украденные у него жизнь и работу.



Страна: США
Продолжительность: 01:42:41
Перевод: Дублированный [Лицензия]
релиз от:
Формат: MKV
Качество: HDRip-AVC
Видео: MPEG4 Video (H264) 720x392 (723:392) 23.976fps
Аудио: Dolby AC3 48000Hz 6ch 4608kbps
Субтитры: UTF-8 [Russian (Subtitle 1)]

Семпл

General
Unique ID : 270505085456988083141342967796716275393 (0xCB81626949AC80308B6F197718A006C1)
Complete name : D:\torrent\Slova.2012.D..mkv
Format : Matroska
Format version : Version 2
File size : 1.38 GiB
Duration : 1h 42mn
Overall bit rate : 1 927 Kbps
Movie name : IRONCLUB
Writing application : XviD4PSP 6.0 / 53.6.0
Writing library : XviD4PSP 6.0 / 53.6.0

Video
ID : 1
Format : AVC
Format/Info : Advanced Video Codec
Format profile : High@L4.1
Format settings, CABAC : Yes
Format settings, ReFrames : 3 frames
Codec ID : V_MPEG4/ISO/AVC
Duration : 1h 42mn
Bit rate : 1 505 Kbps
Nominal bit rate : 1 589 Kbps
Width : 720 pixels
Height : 392 pixels
Display aspect ratio : 16:9
Frame rate mode : Variable
Frame rate : 23.976 fps
Color space : YUV
Chroma subsampling : 4:2:0
Bit depth : 8 bits
Scan type : Progressive
Bits/(Pixel*Frame) : 0.222
Stream size : 1.08 GiB (78%)
Title : The Words 2012 720p BluRay x264 EbP
Writing library : x264 core 116 r2019M 9cc407d
Encoding settings : cabac=1 / ref=3 / deblock=1:-1:-1 / analyse=0x3:0x133 / me=hex / subme=7 / psy=1 / psy_rd=1.00:0.15 / mixed_ref=1 / me_range=16 / chroma_me=1 / trellis=1 / 8x8dct=1 / cqm=0 / deadzone=21,11 / fast_pskip=1 / chroma_qp_offset=-3 / threads=8 / sliced_threads=0 / nr=0 / decimate=1 / interlaced=0 / bluray_compat=0 / constrained_intra=0 / bframes=3 / b_pyramid=1 / b_adapt=2 / b_bias=0 / direct=3 / weightb=1 / open_gop=0 / weightp=2 / keyint=230 / keyint_min=23 / scenecut=40 / intra_refresh=0 / rc_lookahead=40 / rc=abr / mbtree=1 / bitrate=1589 / ratetol=1.0 / qcomp=0.60 / qpmin=10 / qpmax=51 / qpstep=4 / ip_ratio=1.40 / aq=1:1.00
Language : English
Default : Yes
Forced : No

Audio
ID : 2
Format : AC-3
Format/Info : Audio Coding 3
Mode extension : CM (complete main)
Codec ID : A_AC3
Duration : 1h 42mn
Bit rate mode : Constant
Bit rate : 384 Kbps
Channel(s) : 6 channels
Channel positions : Front: L C R, Side: L R, LFE
Sampling rate : 48.0 KHz
Bit depth : 16 bits
Compression mode : Lossy
Stream size : 282 MiB (20%)
Title : DTS 5.1 @ 768 kbps - Dub, R5
Language : Russian
Default : Yes
Forced : No

Text
ID : 3
Format : UTF-8
Codec ID : S_TEXT/UTF8
Codec ID/Info : UTF-8 Plain Text
Language : Russian
Default : Yes
Forced : No





реклама партнёра


Вернуться к началу
 Профиль  
 
   Похожие торренты   Автор   Торрент   Размер 
В этой теме нет новых непрочитанных сообщений. Плохие слова / Bad Words [Комедия, 2013] HDRip, avo

Dracon

248 | 6

1.38 ГБ

В этой теме нет новых непрочитанных сообщений. Плохие слова / Bad Words [Комедия, 2013] HDRip, dub [Чистый звук]

Dracon

1058 | 10

1.37 ГБ

В этой теме нет новых непрочитанных сообщений. Плохие слова / Bad Words [Комедия, 2013] Blu-Ray Remux 1080p, Dub+Sub [iTunes]

Dracon

28 | 10

24.19 ГБ

В этой теме нет новых непрочитанных сообщений. Плохие слова / Bad Words [Комедия, 2013] BDRip 1080p, dub+sub [Чистый звук]

Dracon

88 | 10

9.63 ГБ

В этой теме нет новых непрочитанных сообщений. Плохие слова / Bad Words (Джейсон Бейтман/Jason Bateman) [2013г., комедия, BDRip-AVC] Sub

Alfredovich

1 | 2

1.46 ГБ

В этой теме нет новых непрочитанных сообщений. Этим утром в Нью-Йорке / The Angriest Man in Brooklyn [EXTENDED] [драма, комедия, 2014] HDRip, Dub [Лицензия]

Dracon

51 | 3

1.46 ГБ

В этой теме нет новых непрочитанных сообщений. Виноваты звезды / The Fault in Our Stars [Драма, мелодрама, 2014] BDRip 1080p, Dub+Sub [лицензия | Extended Cut]

Dracon

529 | 49

10.34 ГБ


Начать новую тему Ответить на тему  [ 1 сообщение ] 




Для Мосгорсуда, Роскомнадзора и рекламодателей:: mosgorsud-torrent[собачка]yandex.ru