Торрент файл
скачать торрент магнет ссылка Добавлен: 29 янв 2013, 15:06
Размер: 1.49 ГБ
Сидеров: 12
Личеров: 4
Автор

СообщениеДобавлено: 29 янв 2013, 15:06 

Не в сети
Зам. Админа
Аватара пользователя
Дата регистрации:
02 дек 2010, 12:39
Спасибо: 12460 / 214
Сообщения: 27968

Год выхода: 2012
Жанр:драма
Режиссер: Им Сан Су / Sang-soo Im
В главных ролях: Пэк Юн Сик / Yun-shik Baek; Хё-джин Ким / Hyo-jin Kim; Ким Кан-у / Kim Kang-woo; Он Чжу Ван / Ju-wan On; Maui Taylor; Юн Ё Чун / Yoon Yeo-Jung и др.



О фильме:
Юнгджак — секретарь госпожи Баэк, которая стоит во главе влиятельной корейской промышленной корпорации. Ему поручено заниматься личными делами семьи с сомнительными моральными устоями. Попав в водоворот семейных тайн и властных отношений, Юнгджак должен сделать непростой выбор между своими принципами и возможностью быстро взобраться по ступеням социальной лестницы в надежде на лучшую жизнь. Герой должен понять, на чьей он стороне, в мире, где царят деньги, секс и власть...



Страна: Южная Корея
Продолжительность: 01:54:51 (114 мин.)
Озвучивание: любительское (одноголосное, закадровое)
Ограничение по возрасту:16+



Качество: "HDTVRip" (*.avi)
Video: XviD; 720x304 (2.40:1); 24.000 fps; 1398 Kbps; 0.266 bit/pixel; QPel: No
Audio: AC3 Dolby Digital; CBR; 448 Kbps; 6 channels; 48.0 KHz
Субтитры: отсутствуют



Код:
General
Format: AVI
Format/Info: Audio Video Interleave
Format profile: OpenDML
File size: 1.49 GiB
Duration: 1h 54mn
Overall bit rate: 1 858 Kbps
Writing application: XviD4PSP 6.0 / 53.6.0

Video
ID: 0
Format: MPEG-4 Visual
Format profile: Advanced Simple@L5
Format settings, BVOP: No
Format settings, QPel: No
Format settings, GMC: No warppoints
Format settings, Matrix: Default (MPEG)
Codec ID: XVID
Codec ID/Hint: XviD
Duration: 1h 54mn
Bit rate: 1 398 Kbps
Width: 720 pixels
Height: 304 pixels
Display aspect ratio: 2.40:1
Frame rate: 24.000 fps
Color space: YUV
Chroma subsampling: 4:2:0
Bit depth: 8 bits
Scan type: Progressive
Compression mode: Lossy
Bits/(Pixel*Frame): 0.266
Stream size: 1.12 GiB (75%)
Title: The.Taste.of.Money.2012.Blu-ray.720p.x264.DD51.MySilu
Writing library: XviD 64

Audio
ID: 1
Format: AC-3
Format/Info: Audio Coding 3
Mode extension: CM (complete main)
Format settings, Endianness: Big
Codec ID: 2000
Duration: 1h 54mn
Bit rate mode: Constant
Bit rate: 448 Kbps
Channel(s): 6 channels
Channel positions: Front: L C R, Side: L R, LFE
Sampling rate: 48.0 KHz
Bit depth: 16 bits
Compression mode: Lossy
Stream size: 368 MiB (24%)
Alignment: Aligned on interleaves
Interleave, duration: 32 ms (0.77 video frame)




реклама партнёра


Вернуться к началу
 Профиль  
 
   Похожие торренты   Автор   Торрент   Размер 
В этой теме нет новых непрочитанных сообщений. Больше денег / Mo Money [триллер, мелодрама, комедия, 1992] HDTVRip, Mvo

salma3

6 | 3

1.45 ГБ

В этой теме нет новых непрочитанных сообщений. Деньги, деньги, еще деньги / Больше денег / Mo' Money [Комедия, 1992] WEB-DLRip, Avo

salma3

16 | 6

1.46 ГБ

В этой теме нет новых непрочитанных сообщений. Jake Bugg - Taste It (EP) [13.07.2012, Indie Rock, MP3]

PriZraK

0 | 1

17.53 МБ

В этой теме нет новых непрочитанных сообщений. Алмазные мечты / Blood Money [Боевик, Триллер, Драма, 2012] DVDRip, Avo [zamez]

salma3

8 | 9

1.4 ГБ

В этой теме нет новых непрочитанных сообщений. Без обмана: Кто украл вкус детства [06.08] (Алексей Ошин) [2012, Документальный, расследование, SATRip]

Nickolas3435

71 | 5

455.23 МБ

В этой теме нет новых непрочитанных сообщений. Wizard - Taste Of Wizard (Compilation) [2012, Epic Power Metal, MP3]

PriZraK

0 | 1

158.69 МБ

В этой теме нет новых непрочитанных сообщений. Вкус Америки (Ефим Грибов) [драма, 2014] WEB-DLRip

Dracon

0 | 0

1.37 ГБ


Начать новую тему Ответить на тему  [ 1 сообщение ] 




Для Мосгорсуда, Роскомнадзора и рекламодателей:: mosgorsud-torrent[собачка]yandex.ru