Торрент файл
скачать торрент магнет ссылка Добавлен: 27 янв 2013, 17:20
Размер: 744.79 МБ
Сидеров: 5
Личеров: 3
Статус: (salma3)
Автор

СообщениеДобавлено: 27 янв 2013, 17:20 

Не в сети
Супермодератор
Аватара пользователя
Дата регистрации:
15 фев 2012, 16:44
Возраст: 27
Спасибо: 5139 / 2089
Сообщения: 17411

Девять месяцев / Nine Months

Год выхода: 1995
Жанр: мелодрама, комедия
Режиссер: Крис Коламбус / Chris Columbus
В ролях: Хью Грант, Джулианна Мур, Том Арнольд, Джоан Кьюсак, Джефф Голдблюм, Робин Уильямс, Миа Коттет, Джои Симмрин, Эшли Джонсон, Алекса Вега

О фильме:
Молодая счастливая пара из Сан-Франциско — детский психотерапевт Сэмуэл и учительница танцев Ребекка вместе уже пять лет. Ребекка, как всякая нормальная женщина, мечтает о ребенке. Сэмуэл же боится перемен. Начинается отсчет девяти месяцев беременности.
Друг Сэмуэля, художник-неудачник, расстался с своей любимой, потому что не хотел иметь детей. Он говорит, что неожиданная беременность — нож в спину мужчины, и на это способны только низкие и подлые женщины. Между влюбленными начинаются ссоры, потому что необходимо искать большую квартиру, большую машину, избавиться от кота.
Ребекка решает, что уйдет от Сэмуэла, если тот не смирится с мыслью о ребенке.



Страна: США
Продолжительность: 01:43:18
Перевод: Профессиональный (многоголосый закадровый)
Файл
Кодек: XviD
Качество: HDRip- [BDRip 720p]
Видео: 720x304 (2.35:1), 23.976 fps, 871 Kbps, 0.166 Bits/(Pixel*Frame)
Звук: MP3, 48 KHz, 128 Kbps, 2 channels

Семпл

General
Complete name: D:Devyat'.mesyacev.1995.HDRip.XviD.745mb.avi
Format: AVI
Format/Info: Audio Video Interleave
File size: 745 MiB
Duration: 1h 43mn
Overall bit rate: 1 008 Kbps
Writing application: VirtualDubMod 1.5.10.2 (build 2540/release)
Writing library: VirtualDubMod build 2540/release

Video
ID: 0
Format: MPEG-4 Visual
Format profile: Advanced Simple@L5
Format settings, BVOP: 1
Format settings, QPel: No
Format settings, GMC: No warppoints
Format settings, Matrix: Custom
Codec ID: XVID
Codec ID/Hint: XviD
Duration: 1h 43mn
Bit rate: 871 Kbps
Width: 720 pixels
Height: 304 pixels
Display aspect ratio: 2.35:1
Frame rate: 23.976 fps
Color space: YUV
Chroma subsampling: 4:2:0
Bit depth: 8 bits
Scan type: Progressive
Compression mode: Lossy
Bits/(Pixel*Frame): 0.166
Stream size: 643 MiB (86%)
Writing library: XviD 1.2.1 (UTC 2008-12-04)

Audio
ID: 1
Format: MPEG Audio
Format version: Version 1
Format profile: Layer 3
Mode: Joint stereo
Mode extension: MS Stereo
Codec ID: 55
Codec ID/Hint: MP3
Duration: 1h 43mn
Bit rate mode: Constant
Bit rate: 128 Kbps
Channel(s): 2 channels
Sampling rate: 48.0 KHz
Compression mode: Lossy
Stream size: 94.6 MiB (13%)
Alignment: Aligned on interleaves
Interleave, duration: 42 ms (1.00 video frame)
Interleave, preload duration: 504 ms









реклама партнёра


Вернуться к началу
 Профиль Отправить личное сообщение  
 
   Похожие торренты   Автор   Торрент   Размер 
В этой теме нет новых непрочитанных сообщений. 9 месяцев строгого режима / 9 mois ferme [Комедия, 2013] HDRip, dub [Чистый звук] [НТВ+]

Dracon

1120 | 3

1.37 ГБ

В этой теме нет новых непрочитанных сообщений. Тусовщики из супермаркета / Mallrats [мелодрама, комедия, 1995] HDRip-AVC, Mvo+Sub

salma3

88 | 3

1.45 ГБ

В этой теме нет новых непрочитанных сообщений. Девять жизней / Nine Lives [фэнтези, комедия, семейный, 2016] HDRip, Dub [Line]

marya111

3217 | 151

1.37 ГБ

В этой теме нет новых непрочитанных сообщений. Девять жизней / Nine Lives (фэнтези, комедия, семейный, 2016) HDRip от Scarabey | iTunes

marya111

2455 | 245

1.45 ГБ

В этой теме нет новых непрочитанных сообщений. 12 месяцев. Новая сказка (Денис Елеонский) [комедия, 2014] WEB-DL 1080p

Dracon

64 | 7

3.43 ГБ

В этой теме нет новых непрочитанных сообщений. 9 месяцев строгого режима / 9 mois ferme [Комедия, 2013] BDRip-AVC, Dub+Sub [лицензия]

Dracon

114 | 4

1.95 ГБ

В этой теме нет новых непрочитанных сообщений. 9 месяцев строгого режима / 9 mois ferme [Комедия, 2013] BDRip, Dub+Sub [лицензия]

Dracon

1402 | 51

1.46 ГБ


Начать новую тему Ответить на тему  [ 1 сообщение ] 




Для Мосгорсуда, Роскомнадзора и рекламодателей:: mosgorsud-torrent[собачка]yandex.ru