Торрент файл
скачать торрент магнет ссылка Добавлен: 26 янв 2013, 12:53
Размер: 1.31 ГБ
Сидеров: 0
Личеров: 2
Автор

СообщениеДобавлено: 26 янв 2013, 12:53 

Не в сети
Зам. Админа
Аватара пользователя
Дата регистрации:
02 дек 2010, 12:39
Спасибо: 12461 / 214
Сообщения: 27968

Год выхода: 2012
Жанр: Ужасы, боевик, триллер
Режиссер: Маркус Данстэн
В ролях: Джош Стюарт, Эмма Фитцпатрик, Кристофер МакДональд, Ли Тергесен, Тим Гриффин, Андре Ройо, Рэндолл Арчер, Шеннон Кэйн, Брэндон, Молале, Эрин Вэй

О фильме:
Бывалому медвежатнику Аркину чудесным образом удалось выбраться из ловушек, расставленных по дому загадочным маньяком Коллекционером. Аркин был уверен, что он никогда в жизни больше не встретится с Коллекциoнером, но cудьба распоряжается иначе.

Страна: США, Fortress Features, Liddell Entertainment
Продолжительность: 01:18:24
Перевод: Дублированный [Лицензия]
релиз от:
Формат: MKV
Качество: HDRip-AVC
Видео: MPEG4 Video (H264) 720x304 (725:304) 24fps
Аудио: Dolby AC3 48000Hz 6ch 384kbps
Субтитры: UTF-8 [Russian (Subtitle 1)]

Семпл

General
Unique ID : 235174544277119208528705946983616414188 (0xB0ECF83E225A988E192E84F993F701EC)
Complete name : D:\torrent\Kollekcioner.2.2012.D.mkv
Format : Matroska
Format version : Version 2
File size : 1.31 GiB
Duration : 1h 21mn
Overall bit rate : 2 294 Kbps
Movie name : IRONCLUB
Writing application : XviD4PSP 6.0 / 53.6.0
Writing library : XviD4PSP 6.0 / 53.6.0

Video
ID : 1
Format : AVC
Format/Info : Advanced Video Codec
Format profile : High@L4.1
Format settings, CABAC : Yes
Format settings, ReFrames : 3 frames
Codec ID : V_MPEG4/ISO/AVC
Duration : 1h 21mn
Bit rate : 1 865 Kbps
Nominal bit rate : 1 986 Kbps
Width : 720 pixels
Height : 304 pixels
Display aspect ratio : 2.40:1
Original display aspect ratio : 2.40:1
Frame rate mode : Variable
Frame rate : 24.000 fps
Color space : YUV
Chroma subsampling : 4:2:0
Bit depth : 8 bits
Scan type : Progressive
Bits/(Pixel*Frame) : 0.355
Stream size : 1.06 GiB (81%)
Title : The Collection 720p BluRay DTS x264-IRONCLUB
Writing library : x264 core 116 r2019M 9cc407d
Encoding settings : cabac=1 / ref=3 / deblock=1:-1:-1 / analyse=0x3:0x133 / me=hex / subme=7 / psy=1 / psy_rd=1.00:0.15 / mixed_ref=1 / me_range=16 / chroma_me=1 / trellis=1 / 8x8dct=1 / cqm=0 / deadzone=21,11 / fast_pskip=1 / chroma_qp_offset=-3 / threads=8 / sliced_threads=0 / nr=0 / decimate=1 / interlaced=0 / bluray_compat=0 / constrained_intra=0 / bframes=3 / b_pyramid=1 / b_adapt=2 / b_bias=0 / direct=3 / weightb=1 / open_gop=0 / weightp=2 / keyint=240 / keyint_min=24 / scenecut=40 / intra_refresh=0 / rc_lookahead=40 / rc=abr / mbtree=1 / bitrate=1986 / ratetol=1.0 / qcomp=0.60 / qpmin=10 / qpmax=51 / qpstep=4 / ip_ratio=1.40 / aq=1:1.00
Language : English
Default : Yes
Forced : No

Audio
ID : 2
Format : AC-3
Format/Info : Audio Coding 3
Mode extension : CM (complete main)
Codec ID : A_AC3
Duration : 1h 21mn
Bit rate mode : Constant
Bit rate : 384 Kbps
Channel(s) : 6 channels
Channel positions : Front: L C R, Side: L R, LFE
Sampling rate : 48.0 KHz
Bit depth : 16 bits
Compression mode : Lossy
Stream size : 224 MiB (17%)
Title : DTS 5.1 @ 1536 kbps
Language : Russian
Default : Yes
Forced : No

Text
ID : 3
Format : UTF-8
Codec ID : S_TEXT/UTF8
Codec ID/Info : UTF-8 Plain Text
Language : Russian
Default : Yes
Forced : No





реклама партнёра


Вернуться к началу
 Профиль  
 
   Похожие торренты   Автор   Торрент   Размер 
В этой теме нет новых непрочитанных сообщений. Дракула / Dracula [ужасы, триллер, мелодрама, 2012] HDRip, Mvo [Лицензия]

salma3

288 | 20

1.46 ГБ

В этой теме нет новых непрочитанных сообщений. Власть страха / Коллекционер костей / The Bone Collector [триллер, драма, детектив, 1999] BDRip, Dub [Лицензия]

salma3

82 | 9

1.45 ГБ

В этой теме нет новых непрочитанных сообщений. Военные игры / War Games: At the End of the Day [триллер, ужасы, боевик, 2011] HDRip, Mvo [Лицензия]

salma3

29 | 12

1.46 ГБ

В этой теме нет новых непрочитанных сообщений. Владение 18 [ужасы, детектив, триллер, 2013] HDRip [лицензия]

Dracon

3 | 2

1.46 ГБ

В этой теме нет новых непрочитанных сообщений. Операция «Мертвый снег» 2 / Død Snø 2 [ужасы, боевик, комедия, 2014] HDRip, Dub [лицензия]

salma3

998 | 32

1.46 ГБ

В этой теме нет новых непрочитанных сообщений. Волки / Wolves (Дэвид Хэйтер) [ужасы, боевик, 2014] HDRip, Dub [Лицензия]

Dracon

12 | 2

1.37 ГБ

В этой теме нет новых непрочитанных сообщений. Париж: Город мёртвых / As Above, So Below [ужасы, триллер, 2014] HDRip, Dub [Лицензия]

Dracon

206 | 13

1.46 ГБ


СообщениеДобавлено: 26 янв 2013, 15:05 

Не в сети
Зам. Админа
Аватара пользователя
Дата регистрации:
02 дек 2010, 12:39
Спасибо: 12461 / 214
Сообщения: 27968
Прикольное кино для убийц и маньяков :twisted:


Вернуться к началу
 Профиль  
 
Начать новую тему Ответить на тему  [ Сообщений: 2 ] 




Для Мосгорсуда, Роскомнадзора и рекламодателей:: mosgorsud-torrent[собачка]yandex.ru