Торрент файл
скачать торрент магнет ссылка Добавлен: 25 янв 2013, 12:44
Размер: 2.73 ГБ
Сидеров: 12
Личеров: 4
Статус: (salma3)
Автор

СообщениеДобавлено: 25 янв 2013, 12:44 

Не в сети
Супермодератор
Аватара пользователя
Дата регистрации:
15 фев 2012, 16:44
Возраст: 27
Спасибо: 5143 / 2090
Сообщения: 17475

Вторжение / Invasion

Год выхода: 1997
Жанр: фантастика, триллер
Режиссер: Арман Мастрояни
В ролях: Люк Перри, Ким Кэттролл, Ребекка Гэйхарт, Кристофер Орр, Джон Полито, Джейсон Шомбинг, Нил МакДонаф, Розанна ДеСото, Кастуло Гуерра, Луис Кругнали


О фильме:
Наутро после метеоритного «дождя» Бо Старк взял в руки странный черный камень и почувствовал «укус». А через сутки Бо превратился в нового, «измененного» человека. Как и миллионы других людей…
Земля подверглась нападению инопланетного разума, заражающего людей вирусом, переносимым на метеоритах. Вскоре две трети жителей Земли будут «изменены», а теряющий человеческий облик Бо станет их лидером.
Маленькая группа исследователей во главе с доктором Моран укрывшись от «измененных» в подземном бункере, разрабатывает вакцину против вируса. Но времени осталось очень мало. «Измененные» под руководством Бо уже заканчивают сооружение Космических Врат, через которые армады пришельцев вторгнутся на Землю…

Страна: США
Продолжительность: 1:51:27
Перевод: Профессиональный (многоголосый, закадровый)

Файл
Формат: AVI
Кодек: DivX
Качество: DVDRip
Видео: 640x480, 25.00fps, 1814 Kbps
Звук: AC-3, 448 Кбит/сек, 48,0 КГц
Субтитры: Отсутствуют


Первая серия

Формат: AVI
Формат/Информация: Audio Video Interleave
Размер файла: 1,37 Гбайт
Продолжительность: 1 ч. 26 м.
Общий поток: 2272 Кбит/сек
Программа кодирования: VirtualDubModRus 1.5.10.2 (build 2540/release)
Библиотека кодирования: VirtualDubMod build 2540/release

Видео
Идентификатор: 0
Формат: MPEG-4 Visual
Профиль формата: Advanced Simple@L5
Параметр BVOP формата: 2
Параметр QPel формата: Нет
Параметр GMC формата: Без точки перехода
Параметр матрицы формата: Default (MPEG)
Режим смешивания: Сжатый битовый поток
Идентификатор кодека: DIVX
Идентификатор кодека/Информация: Project Mayo
Идентификатор кодека/Подсказка: DivX 4
Продолжительность: 1 ч. 26 м.
Битрейт: 1814 Кбит/сек
Ширина: 640 пикселей
Высота: 480 пикселей
Соотношение сторон: 4:3
Частота кадров: 25,000 кадров/сек
Цветовое пространство: YUV
Субдискретизация насыщенности: 4:2:0
Битовая глубина: 8 бит
Тип развёртки: Прогрессивная
Метод сжатия: С потерями
Бит/(Пиксели*Кадры): 0.236
Размер потока: 1,09 Гбайт (80%)
Библиотека кодирования: XviD 1.2.0SMP (UTC 2006-01-08)

Аудио
Идентификатор: 1
Формат: AC-3
Формат/Информация: Audio Coding 3
Расширение режима: CM (complete main)
Параметр Endianness формата: Big
Идентификатор кодека: 2000
Продолжительность: 1 ч. 26 м.
Вид битрейта: Постоянный
Битрейт: 448 Кбит/сек
Каналы: 6 каналов
Расположение каналов: Front: L C R, Side: L R, LFE
Частота: 48,0 КГц
Битовая глубина: 16 бит
Метод сжатия: С потерями
Размер потока: 276 Мбайт (20%)
Выравнивание: Разделение по промежуткам
Продолжительность промежутка: 40мс. (1,00 видеокадр)
Время предзагрузки промежутка: 500мс.

Вторая серия

Формат: AVI
Формат/Информация: Audio Video Interleave
Размер файла: 1,37 Гбайт
Продолжительность: 1 ч. 25 м.
Общий поток: 2293 Кбит/сек
Программа кодирования: VirtualDubModRus 1.5.10.2 (build 2540/release)
Библиотека кодирования: VirtualDubMod build 2540/release

Видео
Идентификатор: 0
Формат: MPEG-4 Visual
Профиль формата: Advanced Simple@L5
Параметр BVOP формата: 2
Параметр QPel формата: Нет
Параметр GMC формата: Без точки перехода
Параметр матрицы формата: Default (MPEG)
Режим смешивания: Сжатый битовый поток
Идентификатор кодека: DIVX
Идентификатор кодека/Информация: Project Mayo
Идентификатор кодека/Подсказка: DivX 4
Продолжительность: 1 ч. 25 м.
Битрейт: 1835 Кбит/сек
Ширина: 640 пикселей
Высота: 480 пикселей
Соотношение сторон: 4:3
Частота кадров: 25,000 кадров/сек
Цветовое пространство: YUV
Субдискретизация насыщенности: 4:2:0
Битовая глубина: 8 бит
Тип развёртки: Прогрессивная
Метод сжатия: С потерями
Бит/(Пиксели*Кадры): 0.239
Размер потока: 1,09 Гбайт (80%)
Библиотека кодирования: XviD 1.2.0SMP (UTC 2006-01-08)

Аудио
Идентификатор: 1
Формат: AC-3
Формат/Информация: Audio Coding 3
Расширение режима: CM (complete main)
Параметр Endianness формата: Big
Идентификатор кодека: 2000
Продолжительность: 1 ч. 25 м.
Вид битрейта: Постоянный
Битрейт: 448 Кбит/сек
Каналы: 6 каналов
Расположение каналов: Front: L C R, Side: L R, LFE
Частота: 48,0 КГц
Битовая глубина: 16 бит
Метод сжатия: С потерями
Задержка видео: 16 мс.
Размер потока: 273 Мбайт (20%)
Выравнивание: Разделение по промежуткам
Продолжительность промежутка: 40мс. (1,00 видеокадр)
Время предзагрузки промежутка: 500мс.

Первая серия



Вторая серия








реклама партнёра


Вернуться к началу
 Профиль Отправить личное сообщение  
 
   Похожие торренты   Автор   Торрент   Размер 
В этой теме нет новых непрочитанных сообщений. Вторжение гигантских пауков / The Giant Spider Invasion [ужасы, фантастика, 1975] DVDRip, Avo

salma3

1 | 3

1.46 ГБ

В этой теме нет новых непрочитанных сообщений. Сдохни! / Вторжение в Росвелл / Invasion Roswell [фантастика, боевик, 2013] HDRip, Mvo

Dracon

664 | 22

1.37 ГБ

В этой теме нет новых непрочитанных сообщений. Сдохни! / Вторжение в Росвелл / Invasion Roswell [фантастика, боевик, 2013] BDRip 720p, Mvo

Dracon

269 | 4

3.39 ГБ

В этой теме нет новых непрочитанных сообщений. Вторжение в Розуэлл / Сдохни! / Invasion Roswell / Exterminators / Battle: Earth [фантастика, боевик, 2013] BDRip 1080p, Dvo

salma3

178 | 20

7.04 ГБ

В этой теме нет новых непрочитанных сообщений. Вторжение в США / Invasion U.S.A. [Боевик, 1985] BDRip 1080p, Mvo+Dvo+Avo+Sub

salma3

50 | 64

12.75 ГБ

В этой теме нет новых непрочитанных сообщений. Вторжение на Землю (1-8 серии из 8 ) / Invasion Earth [документальный, 2014] IPTVRip, AVO

salma3

9 | 4

4.28 ГБ

В этой теме нет новых непрочитанных сообщений. День вторжения / Dragon Day / Invasion Day [фантастика, триллер, драма, 2013] HDRip, Mvo

salma3

647 | 17

1.46 ГБ


Начать новую тему Ответить на тему  [ 1 сообщение ] 




Для Мосгорсуда, Роскомнадзора и рекламодателей:: mosgorsud-torrent[собачка]yandex.ru