Торрент файл
скачать торрент магнет ссылка Добавлен: 24 янв 2013, 13:21
Размер: 1.68 ГБ
Сидеров: 0
Личеров: 2
Автор

СообщениеДобавлено: 24 янв 2013, 13:21 

Не в сети
Зам. Админа
Аватара пользователя
Дата регистрации:
02 дек 2010, 12:39
Спасибо: 12461 / 214
Сообщения: 27968

Год выхода: 2012
Жанр: Драма, мелодрама, комедия
Режиссер: Джеми Линден
В ролях: Ченнинг Татум, Дженна Деван, Джастин Лонг, Макс Мингелла, Оскар Айзек, Крис Прэтт, Эри Грейнор, Дэниэл Скотт Лампкин мл., Лили Лампкин, Скотт Портер

О фильме:
10 лет спустя бывшие одноклассники собираются, чтобы оторваться по полной и поставить на уши весь город. Море выпивки, веселья и воспоминаний, но теперь все по-взрослому! Красавчик Джейк прибыл на вечеринку вместе с ослепительной девушкой, они — идеальная пара, и они счастливы в любви. Но этой ночью на глаза Джейку попадается его первая любовь, прошлое притягивает его и стучится в память с новой силой. Сможет ли он сделать правильный выбор? И правда ли, что у любви нет срока давности?



Страна: США
Продолжительность: 01:40:43
Перевод: Дублированный [Лицензия]
релиз от:
Формат: MKV
Качество: HDRip-AVC
Видео: MPEG4 Video (H264) 720x408 (725:408) 23.976fps
Аудио: Dolby AC3 48000Hz 6ch 448kbps


Семпл


General
Unique ID : 222374189686232205436412183581568543266 (0xA74BB6092DC0B9889973A131CE142A22)
Complete name : D:\torrent\10.let.spustja.2012.D.mkv
Format : Matroska
Format version : Version 2
File size : 1.68 GiB
Duration : 1h 40mn
Overall bit rate : 2 408 Kbps
Movie name : IRONCLUB
Writing application : XviD4PSP 6.0 / 53.6.0
Writing library : XviD4PSP 6.0 / 53.6.0

Video
ID : 1
Format : AVC
Format/Info : Advanced Video Codec
Format profile : High@L4.1
Format settings, CABAC : Yes
Format settings, ReFrames : 3 frames
Codec ID : V_MPEG4/ISO/AVC
Duration : 1h 40mn
Bit rate : 1 986 Kbps
Width : 720 pixels
Height : 408 pixels
Display aspect ratio : 16:9
Original display aspect ratio : 16:9
Frame rate mode : Variable
Frame rate : 23.976 fps
Color space : YUV
Chroma subsampling : 4:2:0
Bit depth : 8 bits
Scan type : Progressive
Bits/(Pixel*Frame) : 0.282
Stream size : 1.34 GiB (79%)
Title : 10.Years.2011.720p.BluRay.DD5.1.x264-EbP
Writing library : x264 core 116 r2019M 9cc407d
Encoding settings : cabac=1 / ref=3 / deblock=1:-1:-1 / analyse=0x3:0x133 / me=hex / subme=7 / psy=1 / psy_rd=1.00:0.15 / mixed_ref=1 / me_range=16 / chroma_me=1 / trellis=1 / 8x8dct=1 / cqm=0 / deadzone=21,11 / fast_pskip=1 / chroma_qp_offset=-3 / threads=8 / sliced_threads=0 / nr=0 / decimate=1 / interlaced=0 / bluray_compat=0 / constrained_intra=0 / bframes=3 / b_pyramid=1 / b_adapt=2 / b_bias=0 / direct=3 / weightb=1 / open_gop=0 / weightp=2 / keyint=230 / keyint_min=23 / scenecut=40 / intra_refresh=0 / rc_lookahead=40 / rc=abr / mbtree=1 / bitrate=1986 / ratetol=1.0 / qcomp=0.60 / qpmin=10 / qpmax=51 / qpstep=4 / ip_ratio=1.40 / aq=1:1.00
Language : English
Default : Yes
Forced : No

Audio
ID : 2
Format : AC-3
Format/Info : Audio Coding 3
Mode extension : CM (complete main)
Codec ID : A_AC3
Duration : 1h 40mn
Bit rate mode : Constant
Bit rate : 448 Kbps
Channel(s) : 6 channels
Channel positions : Front: L C R, Side: L R, LFE
Sampling rate : 48.0 KHz
Bit depth : 16 bits
Compression mode : Lossy
Stream size : 321 MiB (19%)
Title : DD 5.1 @ 448 kbps - Dub, R5
Language : Russian
Default : Yes
Forced : No





реклама партнёра


Вернуться к началу
 Профиль  
 
   Похожие торренты   Автор   Торрент   Размер 
В этой теме нет новых непрочитанных сообщений. 45 лет / 45 Years (Эндрю Хэй) [Драма, мелодрама, 2015] HDRip, mvo [Чистый звук]

Dracon

319 | 7

1.46 ГБ

В этой теме нет новых непрочитанных сообщений. New Years Master Ninja [Arcade, 2012] [Лицензия]

Tobus

0 | 2

13.22 МБ

В этой теме нет новых непрочитанных сообщений. А вот и она / And So It Goes [драма, мелодрама, комедия, 2014] HDRip, Dub [лицензия]

Dracon

1048 | 25

1.46 ГБ

В этой теме нет новых непрочитанных сообщений. Последние пять лет / The Last Five Years (Ричард ЛаГравенес) [мюзикл, Драма, Мелодрама, Комедия, 2014] WEBRip, mvo [чистый звук]

Dracon

1 | 1

1.37 ГБ

В этой теме нет новых непрочитанных сообщений. Довольно слов / Enough Said [драма, мелодрама, комедия, 2013] HDRip, Mvo [Лицензия]

Dracon

484 | 7

1.41 ГБ

В этой теме нет новых непрочитанных сообщений. Хоть раз в жизни / Begin again [драма, мелодрама, комедия, 2013] HDRip, Dub [Лицензия]

Dracon

839 | 17

2.05 ГБ

В этой теме нет новых непрочитанных сообщений. Любовный менеджмент / Management [драма, мелодрама, комедия, 2008] HDRip, Mvo+Sub [Лицензия]

salma3

52 | 3

1.46 ГБ


Начать новую тему Ответить на тему  [ 1 сообщение ] 




Для Мосгорсуда, Роскомнадзора и рекламодателей:: mosgorsud-torrent[собачка]yandex.ru