Торрент файл
скачать торрент магнет ссылка Добавлен: 23 янв 2013, 17:01
Размер: 1.64 ГБ
Сидеров: 163
Личеров: 18
Статус: (Dracon)
Автор

СообщениеДобавлено: 23 янв 2013, 17:01 

Не в сети
Зам. Админа
Аватара пользователя
Дата регистрации:
02 дек 2010, 12:39
Спасибо: 12460 / 214
Сообщения: 27968

Год выхода: 2012
Жанр: Боевик
Режиссер: Лиз Адамс
В ролях: Мин-На, Николас Туртурро, Энди Клеменс, Дэрин Купер, Джонатан Ле Биллон, Дилан Вокс, АннаМария Демара, Стив Хэнкс, Уэйн Лопез, Митч Лернер, Джейми Бертон-Оур
О фильме:
Когда нефтедобытчики на морском шельфе у побережья Южной Калифорнии случайно начинают бурить слишком близко к ядру Земли, это приводит к извержению вулкана и угрозе возникновения супермощного циклона на восточном побережье США. Метеоролог и инженер-нефтяник сражаются со стихией, чтобы предотвратить катастрофу.



Страна: США, Global Asylum
Продолжительность: 01:29:19
Перевод: Профессиональный многоголосый
Субтитры: Английские
Дата релиза: 23.01.2013

Кодек: H.264
Качество: BDRip-AVC
Видео: MPEG-4 AVC, 1999 Кбит/с, 1024x576
Звук: Русский (AC3, 2 ch, 192 Кбит/с), английский (AC3, 6 ch, 448 Кбит/с)


Семпл


Общее
Уникальный идентификатор: 238304976211880410155964519931245201310 (0xB347DE740D01ED1E9CE0C451F673879E)
Полное имя: D:1Super.ciklon.2012.x264.BDRip.(AVC).ExKinoRay.mkv
Формат: Matroska
Версия формата: Version 2
Размер файла: 1,64 Гбайт
Продолжительность: 1 ч. 29 м.
Общий поток: 2625 Кбит/сек
Название фильма: Super.ciklon.2012.x264.BDRip.(AVC).ExKinoRay
Дата кодирования: UTC 2013-01-23 13:31:13
Программа кодирования: mkvmerge v4.0.0 ('The Stars were mine') сборка от Jun6 2010 16:18:42
Библиотека кодирования: libebml v1.0.0 + libmatroska v1.0.0

Видео
Идентификатор: 1
Формат: AVC
Формат/Информация: Advanced Video Codec
Профиль формата: High@L4.1
Параметр CABAC формата: Да
Параметр ReFrames формата: 8 кадров
Идентификатор кодека: V_MPEG4/ISO/AVC
Продолжительность: 1 ч. 29 м.
Битрейт: 1999 Кбит/сек
Ширина: 1024 пикселя
Высота: 576 пикселей
Соотношение сторон: 16:9
Частота кадров: 23,976 кадра/сек
Цветовое пространство: YUV
Субдискретизация насыщенности: 4:2:0
Битовая глубина: 8 бит
Тип развёртки: Прогрессивная
Бит/(Пиксели*Кадры): 0.141
Размер потока: 1,21 Гбайт (74%)
Заголовок: Rip by Enigma-Vladislav71
Библиотека кодирования: x264 core 129 r2230 1cffe9f
Настройки программы: cabac=1 / ref=8 / deblock=1:-2:-2 / analyse=0x3:0x133 / me=umh / subme=11 / psy=1 / psy_rd=1.00:0.00 / mixed_ref=1 / me_range=48 / chroma_me=1 / trellis=2 / 8x8dct=1 / cqm=0 / deadzone=21,11 / fast_pskip=0 / chroma_qp_offset=-2 / threads=3 / lookahead_threads=1 / sliced_threads=0 / nr=0 / decimate=0 / interlaced=0 / bluray_compat=0 / constrained_intra=0 / bframes=8 / b_pyramid=2 / b_adapt=2 / b_bias=0 / direct=3 / weightb=1 / open_gop=0 / weightp=2 / keyint=240 / keyint_min=23 / scenecut=40 / intra_refresh=0 / rc_lookahead=40 / rc=2pass / mbtree=1 / bitrate=1999 / ratetol=1.0 / qcomp=0.60 / qpmin=10 / qpmax=51 / qpstep=4 / cplxblur=20.0 / qblur=0.5 / ip_ratio=1.40 / aq=2:1.00
Язык: English

Аудио #1
Идентификатор: 2
Формат: AC-3
Формат/Информация: Audio Coding 3
Расширение режима: CM (complete main)
Идентификатор кодека: A_AC3
Продолжительность: 1 ч. 29 м.
Вид битрейта: Постоянный
Битрейт: 192 Кбит/сек
Каналы: 2 канала
Расположение каналов: Front: L R
Частота: 48,0 КГц
Битовая глубина: 16 бит
Метод сжатия: С потерями
Размер потока: 123 Мбайт (7%)
Заголовок: многоголосый
Язык: Russian

Аудио #2
Идентификатор: 3
Формат: AC-3
Формат/Информация: Audio Coding 3
Расширение режима: CM (complete main)
Идентификатор кодека: A_AC3
Продолжительность: 1 ч. 29 м.
Вид битрейта: Постоянный
Битрейт: 448 Кбит/сек
Каналы: 6 каналов
Расположение каналов: Front: L C R, Side: L R, LFE
Частота: 48,0 КГц
Битовая глубина: 16 бит
Метод сжатия: С потерями
Размер потока: 286 Мбайт (17%)
Заголовок: английский
Язык: English

Текст
Идентификатор: 4
Формат: UTF-8
Идентификатор кодека: S_TEXT/UTF8
Идентификатор кодека/Информация: UTF-8 Plain Text
Язык: English

Релиз от:

Авторы релиза:




реклама партнёра


Вернуться к началу
 Профиль  
 
   Похожие торренты   Автор   Торрент   Размер 
В этой теме нет новых непрочитанных сообщений. Super Anal Cougars 5 / Супер Анальные Мамочки 5 (2016) WEB-DL

amadei

8 | 9

2.83 ГБ

В этой теме нет новых непрочитанных сообщений. Gangland Super Gang Bang 6 / Супер Групповуха 6 (2016) WEB-DL

amadei

1 | 0

1.32 ГБ

В этой теме нет новых непрочитанных сообщений. Super Cute 2 / Супер Милая 2 (Mason / Hard X) (Mia Malkova, Keisha Grey, Aidra Fox, Carmen Caliente) [2014 г., Gonzo, 18+ Teens, DVDRip 396p]

friizze

0 | 2

1.52 ГБ

В этой теме нет новых непрочитанных сообщений. Super Whores 4 / Супер Шлюхи 4 (Mario Rossi / Mercenary Pictures) (Mandy Bright, Kianna Dior, Michelle Lay, Lori Alexia, Austin Kincaid...) [2004 г., All Sex, Anal, Oral, Gonzo, BigTits, Porn Stars, Pantyhose, DP, WEB-DL 480p] Split Scenes

friizze

2 | 30

1.12 ГБ

В этой теме нет новых непрочитанных сообщений. New Super Mario Forever 2012 [Arcade, 2012] [Лицензия]

Kris76

0 | 2

84.09 МБ

В этой теме нет новых непрочитанных сообщений. Super Bob - Super Bob [2011, Rapcore, Nu Metal, MP3]

PriZraK

0 | 1

80.52 МБ

В этой теме нет новых непрочитанных сообщений. Супер Майк XXL / Magic Mike XXL (Грегори Джейкобс) [комедия, музыка, драма, 2015] BDRip-AVC, Dub+Sub [BD CEE]

Dracon

631 | 54

2.18 ГБ


Начать новую тему Ответить на тему  [ 1 сообщение ] 




Для Мосгорсуда, Роскомнадзора и рекламодателей:: mosgorsud-torrent[собачка]yandex.ru