Торрент файл
скачать торрент магнет ссылка Добавлен: 22 янв 2013, 19:26
Размер: 1.45 ГБ
Сидеров: 12
Личеров: 3
Статус: (salma3)
Автор

СообщениеДобавлено: 22 янв 2013, 19:26 

Не в сети
Супермодератор
Аватара пользователя
Дата регистрации:
15 фев 2012, 16:44
Возраст: 27
Спасибо: 5121 / 2089
Сообщения: 17282

Амфибия 3D / Amphibious 3D

Год выхода: 2010
Жанр: ужасы
Режиссер: Брайан Юзна
В ролях: Мохаммад Адитья, Френсис Боско, Янна Фассаерт, Элке Салверда, Френсис Маджи, Верди Солайман, Майкл Паре


О фильме:
Морской биолог Скайлар Шейн нанимает лодку капитана Джека Боумана, чтобы найти образцы доисторических форм возле северного побережья Суматры. Во время экспедиции они сталкиваются с бандой контрабандистов, скрывающихся на рыболовецкой платформе посреди моря. Но контрабандисты - не самое страшное, с чем придется столкнуться Скайлар: приближается жуткий шторм, а в темных глубинах вод проснулось древнее и могучее существо…



Страна: Нидерланды, Индонезия
Продолжительность: 01:26:27
Перевод: Профессиональный (многоголосый, закадровый)

Файл
Кодек: AVC
Качество: HDRip
Видео: 1024 x 544 (1:88:1), 23,976 fps, AVC (х264) High@L4.1, ~ 2182 Kbps, 0.163 bit/pixel
Аудио: 48 kHz, AC-3, LR, 2 ch, ~224.00 kbps avg



Рип: jeenart

Полное имя: G:\Amphibious.3D.2010.HDRip-AVC.H.264.1500Mb.RG.Films.mkv
Формат: Matroska
Версия формата: Version 2
Размер файла: 1,45 Гбайт
Продолжительность: 1 ч. 26 м.
Общий поток: 2407 Кбит/сек
Дата кодирования: UTC 2013-01-22 12:48:29
Программа кодирования: mkvmerge v4.6.0 ('Still Crazy After All These Years') сборка от Apr1 2011 21:01:49
Библиотека кодирования: libebml v1.2.0 + libmatroska v1.1.0
Видео
Идентификатор: 1
Формат: AVC
Формат/Информация: Advanced Video Codec
Профиль формата: High@L4.1
Параметр CABAC формата: Да
Параметр ReFrames формата: 8 кадров
Идентификатор кодека: V_MPEG4/ISO/AVC
Продолжительность: 1 ч. 26 м.
Битрейт: 2182 Кбит/сек
Ширина: 1024 пикселя
Высота: 544 пикселя
Соотношение сторон: 1,882
Режим частоты кадров: Постоянный
Частота кадров: 23,976 кадра/сек
Цветовое пространство: YUV
Субдискретизация насыщенности: 4:2:0
Битовая глубина: 8 бит
Тип развёртки: Прогрессивная
Бит/(Пиксели*Кадры): 0.163
Размер потока: 1,29 Гбайт (89%)
Библиотека кодирования: x264 core 115 r1937 aa21558
Настройки программы: cabac=1 / ref=8 / deblock=1:-1:-1 / analyse=0x3:0x133 / me=umh / subme=7 / psy=1 / psy_rd=1.00:0.10 / mixed_ref=1 / me_range=16 / chroma_me=1 / trellis=2 / 8x8dct=1 / cqm=0 / deadzone=21,11 / fast_pskip=0 / chroma_qp_offset=-3 / threads=6 / sliced_threads=0 / nr=0 / decimate=1 / interlaced=0 / bluray_compat=0 / constrained_intra=0 / bframes=3 / b_pyramid=2 / b_adapt=2 / b_bias=0 / direct=3 / weightb=1 / open_gop=0 / weightp=2 / keyint=250 / keyint_min=23 / scenecut=40 / intra_refresh=0 / rc_lookahead=50 / rc=2pass / mbtree=1 / bitrate=2182 / ratetol=1.0 / qcomp=0.60 / qpmin=0 / qpmax=69 / qpstep=4 / cplxblur=20.0 / qblur=0.5 / ip_ratio=1.40 / aq=1:1.00
Default: Да
Forced: Нет
Аудио
Идентификатор: 2
Формат: AC-3
Формат/Информация: Audio Coding 3
Расширение режима: CM (complete main)
Параметр Endianness формата: Big
Идентификатор кодека: A_AC3
Продолжительность: 1 ч. 26 м.
Вид битрейта: Постоянный
Битрейт: 224 Кбит/сек
Каналы: 2 канала
Расположение каналов: Front: L R
Частота: 48,0 КГц
Битовая глубина: 16 бит
Метод сжатия: С потерями
Размер потока: 139 Мбайт (9%)
Default: Да
Forced: Нет





реклама партнёра


Вернуться к началу
 Профиль Отправить личное сообщение  
 
   Похожие торренты   Автор   Торрент   Размер 
В этой теме нет новых непрочитанных сообщений. Увольнение / Fired [ужасы, 2010] HDRip, Dvo

salma3

14 | 5

1.37 ГБ

В этой теме нет новых непрочитанных сообщений. Высота / Altitude [ужасы, фантастика, триллер, 2010] HDRip, Mvo [HTB+]

salma3

25 | 2

1.46 ГБ

В этой теме нет новых непрочитанных сообщений. Ночной драйв / Night Drive [ужасы, триллер, 2010] HDRip, Mvo

salma3

23 | 5

1.46 ГБ

В этой теме нет новых непрочитанных сообщений. День матери / Mother's Day [ужасы, триллер, драма, криминал, 2010] HDRip, Mvo

salma3

20 | 4

1.45 ГБ

В этой теме нет новых непрочитанных сообщений. Крестовые походы / Dark Relic [ужасы, фантастика, фэнтези, 2010] HDRip, Mvo

salma3

4 | 2

1.37 ГБ

В этой теме нет новых непрочитанных сообщений. Зарождение Мертвецов / Dead Genesis [ужасы, триллер, драма, 2010] HDRip, Avo

salma3

5 | 3

1.45 ГБ

В этой теме нет новых непрочитанных сообщений. Ужасный способ умереть / A Horrible Way to Die [ужасы, триллер, 2010] HDRip, Mvo [Лицензия]

salma3

13 | 3

1.45 ГБ


Начать новую тему Ответить на тему  [ 1 сообщение ] 




Для Мосгорсуда, Роскомнадзора и рекламодателей:: mosgorsud-torrent[собачка]yandex.ru