Торрент файл
скачать торрент магнет ссылка Добавлен: 23 янв 2013, 17:31
Размер: 1.86 ГБ
Сидеров: 0
Личеров: 1
Автор

СообщениеДобавлено: 22 янв 2013, 14:15 

Не в сети
Зам. Админа
Аватара пользователя
Дата регистрации:
02 дек 2010, 12:39
Спасибо: 12461 / 214
Сообщения: 27968

Год выхода: 2011
Жанр: криминал, драма
Режиссер: Майкл Р. Роскам
В ролях: Маттиас Схунаартс, Йерун Персевал, Жанне Дандой, Тибо Фанденборре, Робин Фалфейкенс , Барбара Сарафьян и др.

О фильме:
К молодому скотоводу Джекки Вэнмарсениллу приезжает недобросовестный ветеринар, чтобы заключить теневую сделку с печально известным западно-фламандским торговцем говядины. Но убийство федерального полицейского, и неожиданное столкновение с тайной из прошлого Джекки, приводят в движение цепь событий с далеко идущими последствиями. Захватывающая трагедия о судьбе, потерянной невиновности и дружбе, о преступлении и наказании, но также и о противоречивых желаниях и необратимости судьбы человека.

Страна: Бельгия
Продолжительность: 02:03:32
Перевод: Профессиональный (многоголосный) [НТВ+]

Формат: MKV
Качество: HDRip-AVC
Видео: MPEG4 Video (H264) 720x408 (725:408) 25fps
Аудио: Dolby AC3 48000Hz stereo 192kbps

релиз от:

Семпл

General
Unique ID : 180973337787006964831317865592798641995 (0x8826327114966939191FCDC87F30FF4B)
Complete name : D:\torrent\By4ara.2011.P.mkv
Format : Matroska
Format version : Version 2
File size : 1.86 GiB
Duration : 2h 3mn
Overall bit rate : 2 153 Kbps
Writing application : XviD4PSP 6.0 / 53.6.0
Writing library : XviD4PSP 6.0 / 53.6.0

Video
ID : 1
Format : AVC
Format/Info : Advanced Video Codec
Format profile : High@L4.1
Format settings, CABAC : Yes
Format settings, ReFrames : 3 frames
Codec ID : V_MPEG4/ISO/AVC
Duration : 2h 3mn
Bit rate : 2 000 Kbps
Width : 720 pixels
Height : 408 pixels
Display aspect ratio : 16:9
Original display aspect ratio : 16:9
Frame rate mode : Variable
Frame rate : 25.000 fps
Color space : YUV
Chroma subsampling : 4:2:0
Bit depth : 8 bits
Scan type : Progressive
Bits/(Pixel*Frame) : 0.272
Stream size : 1.66 GiB (89%)
Writing library : x264 core 116 r2019M 9cc407d
Encoding settings : cabac=1 / ref=3 / deblock=1:-1:-1 / analyse=0x3:0x133 / me=hex / subme=7 / psy=1 / psy_rd=1.00:0.15 / mixed_ref=1 / me_range=16 / chroma_me=1 / trellis=1 / 8x8dct=1 / cqm=0 / deadzone=21,11 / fast_pskip=1 / chroma_qp_offset=-3 / threads=8 / sliced_threads=0 / nr=0 / decimate=1 / interlaced=0 / bluray_compat=0 / constrained_intra=0 / bframes=3 / b_pyramid=1 / b_adapt=2 / b_bias=0 / direct=3 / weightb=1 / open_gop=0 / weightp=2 / keyint=250 / keyint_min=25 / scenecut=40 / intra_refresh=0 / rc_lookahead=40 / rc=abr / mbtree=1 / bitrate=2000 / ratetol=1.0 / qcomp=0.60 / qpmin=10 / qpmax=51 / qpstep=4 / ip_ratio=1.40 / aq=1:1.00
Language : English
Default : Yes
Forced : No

Audio
ID : 2
Format : AC-3
Format/Info : Audio Coding 3
Mode extension : CM (complete main)
Codec ID : A_AC3
Duration : 2h 3mn
Bit rate mode : Constant
Bit rate : 192 Kbps
Channel(s) : 2 channels
Channel positions : Front: L R
Sampling rate : 48.0 KHz
Bit depth : 16 bits
Compression mode : Lossy
Stream size : 170 MiB (9%)
Language : Russian
Default : Yes
Forced : No





реклама партнёра


Вернуться к началу
 Профиль  
 
   Похожие торренты   Автор   Торрент   Размер 
В этой теме нет новых непрочитанных сообщений. Гражданин гангстер / Citizen Gangster [криминал, драма, 2011] HDRip, Mvo

salma3

66 | 3

1.46 ГБ

В этой теме нет новых непрочитанных сообщений. Джо / Joe [драма, криминал, 2013] HDRip, Mvo [лицензия]

Dracon

2212 | 93

1.46 ГБ

В этой теме нет новых непрочитанных сообщений. Эли / Heli [драма, криминал, 2013] HDRip, Mvo [НТВ+]

salma3

429 | 8

1.46 ГБ

В этой теме нет новых непрочитанных сообщений. Где-то там / Elsewhere [триллер, драма, криминал, 2009] HDRip, Dvo

salma3

15 | 2

1.45 ГБ

В этой теме нет новых непрочитанных сообщений. Самый крутой / Top Dog [драма, криминал, 2014] HDRip, Avo

hobbit1021

103 | 15

1.37 ГБ

В этой теме нет новых непрочитанных сообщений. Гиена / Hyena [драма, криминал, 2014] HDRip, avo

marya111

0 | 0

2.06 ГБ

В этой теме нет новых непрочитанных сообщений. Ночь / Une nuit [драма, криминал, 2012] HDRip, Mvo [НТВ+]

salma3

74 | 3

1.45 ГБ


Начать новую тему Ответить на тему  [ 1 сообщение ] 




Для Мосгорсуда, Роскомнадзора и рекламодателей:: mosgorsud-torrent[собачка]yandex.ru