Торрент файл
скачать торрент магнет ссылка Добавлен: 21 янв 2013, 19:41
Размер: 744.18 МБ
Сидеров: 2
Личеров: 3
Статус: (salma3)
Автор

СообщениеДобавлено: 21 янв 2013, 19:41 

Не в сети
Супермодератор
Аватара пользователя
Дата регистрации:
15 фев 2012, 16:44
Возраст: 27
Спасибо: 5140 / 2090
Сообщения: 17470

Отмеченный смертью / Marked for Death

Год выхода: 1990
Жанр: боевик, триллер, драма, криминал
Режиссер: Дуайт Х. Литтл / Dwight H. Little
В ролях: Стивен Сигал, Бейзил Уоллес, Кит Дэвид, Том Райт, Джоанна Пакула, Элизабет Грэйсен, Бетт Форд, Даниэль Харрис, Эл Израэл, Арлен Дин Снайдер

О фильме:
После смерти напарника Джон Хэтчер, специальный агент отдела по борьбе с наркотиками, решает подать в отставку. Переехав к своей сестре в Чикаго, Хэтчер намеревается вести тихое и размеренное существование. Но этому не суждено было сбыться.
На пути у бывшего полицейского встает ямайская наркомафия во главе со своим жутким главарем по прозвищу Зомби. Хэтчер оказывается втянутым в кровавые разборки.



Страна: США
Продолжительность: 01:33:19
Перевод: Профессиональный (многоголосый закадровый)

Файл
Кодек: XviD
Качество: HDRip-[BDRip 1080p]
Видео: 688x288 (2.40:1), 23.976 fps, 978 Kbps, 0.206 Bits/(Pixel*Frame)
Звук: MP3, 48 KHz, 128 Kbps, 2 channels

Семпл

General
Complete name: D:Otmechennyj.smert'yu.1990.HDRip.XviD.744mb.avi
Format: AVI
Format/Info: Audio Video Interleave
File size: 744 MiB
Duration: 1h 33mn
Overall bit rate: 1 115 Kbps
Writing application: VirtualDubMod 1.5.10.2 (build 2540/release)
Writing library: VirtualDubMod build 2540/release

Video
ID: 0
Format: MPEG-4 Visual
Format profile: Advanced Simple@L5
Format settings, BVOP: 1
Format settings, QPel: No
Format settings, GMC: No warppoints
Format settings, Matrix: Custom
Codec ID: XVID
Codec ID/Hint: XviD
Duration: 1h 33mn
Bit rate: 978 Kbps
Width: 688 pixels
Height: 288 pixels
Display aspect ratio: 2.40:1
Frame rate: 23.976 fps
Color space: YUV
Chroma subsampling: 4:2:0
Bit depth: 8 bits
Scan type: Progressive
Compression mode: Lossy
Bits/(Pixel*Frame): 0.206
Stream size: 653 MiB (88%)
Writing library: XviD 1.2.1 (UTC 2008-12-04)

Audio
ID: 1
Format: MPEG Audio
Format version: Version 1
Format profile: Layer 3
Mode: Joint stereo
Mode extension: MS Stereo
Codec ID: 55
Codec ID/Hint: MP3
Duration: 1h 33mn
Bit rate mode: Constant
Bit rate: 128 Kbps
Channel(s): 2 channels
Sampling rate: 48.0 KHz
Compression mode: Lossy
Stream size: 85.4 MiB (11%)
Alignment: Aligned on interleaves
Interleave, duration: 42 ms (1.00 video frame)
Interleave, preload duration: 504 ms









реклама партнёра


Вернуться к началу
 Профиль Отправить личное сообщение  
 
   Похожие торренты   Автор   Торрент   Размер 
В этой теме нет новых непрочитанных сообщений. Торговец смертью / Merchant of Death [Боевик, драма, 1997] DVDRip, Dvo

salma3

20 | 2

1.46 ГБ

В этой теме нет новых непрочитанных сообщений. Ордер на смерть / Death Warrant [боевик, драма, криминал, детектив, 1990] BDRip-AVC, Mvo+Sub

salma3

69 | 9

1.46 ГБ

В этой теме нет новых непрочитанных сообщений. Между жизнью и смертью / Sehar [Боевик, драма, криминал, 2005] DVDRip, Mvo

salma3

28 | 15

1.36 ГБ

В этой теме нет новых непрочитанных сообщений. Сыграй мне перед смертью / Play Misty for Me [триллер, драма, криминал, 1971] BDRip, Dub

salma3

9 | 1

1.45 ГБ

В этой теме нет новых непрочитанных сообщений. Внутреннее расследование / Internal Affairs [Триллер, драма, криминал, 1990] HDRip, Dvo

salma3

31 | 2

2.18 ГБ

В этой теме нет новых непрочитанных сообщений. Паранормальное явление: Метка Дьявола / Paranormal Activity: The Marked Ones [Ужасы, триллер, 2013] HDRip, Dub [iTunes]

Dracon

301 | 19

1.36 ГБ

В этой теме нет новых непрочитанных сообщений. Сыграй мне перед смертью / Play Misty for me [Триллер, драма, мелодрама, криминал, 1971] BDRemux 1080p, Dub+Sub

salma3

1 | 2

25.3 ГБ


Начать новую тему Ответить на тему  [ 1 сообщение ] 




Для Мосгорсуда, Роскомнадзора и рекламодателей:: mosgorsud-torrent[собачка]yandex.ru