Торрент файл
скачать торрент магнет ссылка Добавлен: 20 янв 2013, 15:55
Размер: 1.46 ГБ
Сидеров: 6
Личеров: 2
Статус: (salma3)
Автор

СообщениеДобавлено: 20 янв 2013, 15:55 

Не в сети
Супермодератор
Аватара пользователя
Дата регистрации:
15 фев 2012, 16:44
Возраст: 27
Спасибо: 5130 / 2089
Сообщения: 17372

В погоне за Папи / Chasing Papi

«Three women. Three cities. Three times the trouble.»

Год выпуска: 2003
Страна: США
Жанр: мелодрама, комедия
Продолжительность: 01:16:54
Перевод: Профессиональный (многоголосый, закадровый)
Оригинальная аудиодорожка: английский
Cубтитры: русский
Режиссер: Линда Мендоза / Linda Mendoza
В ролях: Розелин Санчез, София Вергара, Джэси Веласкез, Эдуардо Верастеги, Лиза Видал, Фредди Родригес, Д.Л. Хьюли, Мария Кончита Алонсо, Уолтер Меркадо, Карлос Понсе...

Описание: Красавец Томас «Папи» Фуэнтес — сотрудник рекламного агентства — влюблен сильно и по-настоящему… в трех шикарных девушек, проживающих в трех разных городах: жеманная Патрисия — из Нью-Йорка, прекрасная Лорена — из Чикаго и сексапильная Сиси — из Майами. И вот, все три красотки приезжают в Лос-Анджелес, чтобы сделать сюрприз Папи.



Исходник: DVD5 R5
Тип релиза: DVDRip
Контейнер: AVI
Видео: 720x384 (1.85:1), 25.000 fps, XviD ~ 1807 kbps avg, 0.261 bit/pixel
Аудио 1: 48 kHz, Dolby AC3 5.1 448 kbps, русский
Аудио 2: 48 kHz, Dolby AC3 5.1 448 kbps, английский
Формат субтитров: SoftSub (srt)

Раздача от:

Общее
Полное имя: V.pogone.za.Papi.2003.P.DVDRip_[Youtracker]_by_avproh.avi
Формат: AVI
Формат/Информация: Audio Video Interleave
Размер файла: 1,46 Гбайт
Продолжительность: 1 ч. 16 м.
Общий поток: 2717 Кбит/сек
Программа кодирования: VirtualDubMod 1.5.10.3 (build 2550/release)
Библиотека кодирования: VirtualDubMod build 2550/release

Видео
Идентификатор: 0
Формат: MPEG-4 Visual
Профиль формата: Advanced Simple@L5
Параметр BVOP формата: 1
Параметр QPel формата: Нет
Параметр GMC формата: Без точки перехода
Параметр матрицы формата: Выборочная
Идентификатор кодека: XVID
Идентификатор кодека/Подсказка: XviD
Продолжительность: 1 ч. 16 м.
Битрейт: 1807 Кбит/сек
Ширина: 720 пикселей
Высота: 384 пикселя
Соотношение сторон: 1,85:1
Частота кадров: 25,000 кадров/сек
Цветовое пространство: YUV
Субдискретизация насыщенности: 4:2:0
Битовая глубина: 8 бит
Тип развёртки: Прогрессивная
Метод сжатия: С потерями
Бит/(Пиксели*Кадры): 0.261
Размер потока: 994 Мбайт (66%)
Библиотека кодирования: XviD 65

Аудио #1
Идентификатор: 1
Формат: AC-3
Формат/Информация: Audio Coding 3
Расширение режима: CM (complete main)
Параметр Endianness формата: Big
Идентификатор кодека: 2000
Продолжительность: 1 ч. 16 м.
Вид битрейта: Постоянный
Битрейт: 448 Кбит/сек
Каналы: 6 каналов
Расположение каналов: Front: L C R, Side: L R, LFE
Частота: 48,0 КГц
Битовая глубина: 16 бит
Метод сжатия: С потерями
Размер потока: 246 Мбайт (16%)
Выравнивание: Разделение по промежуткам
Продолжительность промежутка: 40мс. (1,00 видеокадр)
Время предзагрузки промежутка: 500мс.

Аудио #2
Идентификатор: 2
Формат: AC-3
Формат/Информация: Audio Coding 3
Расширение режима: CM (complete main)
Параметр Endianness формата: Big
Идентификатор кодека: 2000
Продолжительность: 1 ч. 16 м.
Вид битрейта: Постоянный
Битрейт: 448 Кбит/сек
Каналы: 6 каналов
Расположение каналов: Front: L C R, Side: L R, LFE
Частота: 48,0 КГц
Битовая глубина: 16 бит
Метод сжатия: С потерями
Размер потока: 246 Мбайт (16%)
Выравнивание: Разделение по промежуткам
Продолжительность промежутка: 40мс. (1,00 видеокадр)
Время предзагрузки промежутка: 500мс.






реклама партнёра


Вернуться к началу
 Профиль Отправить личное сообщение  
 
   Похожие торренты   Автор   Торрент   Размер 
В этой теме нет новых непрочитанных сообщений. В погоне за Эми / Chasing Amy [драма, мелодрама, комедия, 1996] BDRip, Dvo

salma3

25 | 3

1.46 ГБ

В этой теме нет новых непрочитанных сообщений. В погоне за Эми / Chasing Amy [драма, мелодрама, комедия, 1997] BDRip 720p, Mvo+Avo+Sub

salma3

27 | 9

9.05 ГБ

В этой теме нет новых непрочитанных сообщений. В погоне за Эми / Chasing Amy [драма, мелодрама, комедия, 1997] BDRip 1080p, Mvo+Avo+Sub

salma3

9 | 7

17.53 ГБ

В этой теме нет новых непрочитанных сообщений. Первая дочь / В погоне за свободой / Chasing Liberty / First Daughter [Комедия, 2004] DVDRip, Mvo [КПК]

salma3

8 | 2

517 МБ

В этой теме нет новых непрочитанных сообщений. Первая дочь / В погоне за свободой / Chasing Liberty / First Daughter [Комедия, 2004] DVD5, Mvo+Sub

salma3

2 | 3

4.29 ГБ

В этой теме нет новых непрочитанных сообщений. В погоне за девушкой / Chasing the Girl (Лесли Йео / ---) [2015г., Китай , триллер,WEBRip] avo

Alfredovich

200 | 11

699.49 МБ

В этой теме нет новых непрочитанных сообщений. В погоне за тенями  / Chasing Shadows [Season 1, Episodes 1-4 of 4] (Кристофер Менол) [Драма, Детектив, Криминал, Триллер, 2014] WEB-DLRip [BaibaKo]

Dracon

5 | 3

2.4 ГБ


Начать новую тему Ответить на тему  [ 1 сообщение ] 




Для Мосгорсуда, Роскомнадзора и рекламодателей:: mosgorsud-torrent[собачка]yandex.ru