Торрент файл
скачать торрент магнет ссылка Добавлен: 19 янв 2013, 14:51
Размер: 1.35 ГБ
Сидеров: 0
Личеров: 2
Статус: (drink)
Автор

СообщениеДобавлено: 19 янв 2013, 14:51 

Не в сети
Зам. Админа
Аватара пользователя
Дата регистрации:
02 дек 2010, 12:39
Спасибо: 12461 / 214
Сообщения: 27968

Апартаменты 1303 / Apartment 1303 3D

Год выхода: 2012
Жанр:ужасы
Режиссер: Мишель Таверна
В ролях: Миша Бартон, Ребекка Де Морнэй, Джулианна Мишель, Кори Севьер, Джон Дил, Джиллиан Олтмэн, Кэтерин Клилэнд, Кэтлин Мэкки, Джессика Малька, Гордон Мастен

О фильме: В этой квартире всегда рады новым жильцам. Но никто не знает о легенде проклятия, которое здесь обитает. Говорят в апартаментах N1303, живут призраки матери и дочери, погибшие насильственной смертью. Не найдя покоя, духи мертвых жаждят отомстить своим убийцам. Каждый, кто переступает порог комнаты ужаса, становится их заложником. И еще никому не удалось вырваться из плена смерти…



Выпущено: США, Канада / 1303 Productions, Monte Cristo
Продолжительность: 01:21:39
Озвучивание: Дублированное [лицензия]
релиз от:
Формат: MKV
Качество: DVDRip-AVC
Видео: MPEG4 Video (H264) 720x576 (16:9) 25fps
Аудио: Dolby AC3 48000Hz 6ch 384kbps
семпл
General
Unique ID : 106662244586009650524807301229996039885 (0x503E66AD1288528DFB8C17D99C965ECD)
Complete name : D:\torrent\Apartamenty.1303.2012.D.mkv
Format : Matroska
Format version : Version 2
File size : 1.35 GiB
Duration : 1h 21mn
Overall bit rate : 2 363 Kbps
Writing application : XviD4PSP 6.0 / 53.6.0
Writing library : XviD4PSP 6.0 / 53.6.0

Video
ID : 1
Format : AVC
Format/Info : Advanced Video Codec
Format profile : High@L4.1
Format settings, CABAC : Yes
Format settings, ReFrames : 3 frames
Codec ID : V_MPEG4/ISO/AVC
Duration : 1h 21mn
Bit rate : 2 000 Kbps
Width : 720 pixels
Height : 576 pixels
Display aspect ratio : 16:9
Frame rate mode : Variable
Frame rate : 25.000 fps
Standard : PAL
Color space : YUV
Chroma subsampling : 4:2:0
Bit depth : 8 bits
Scan type : MBAFF
Bits/(Pixel*Frame) : 0.193
Stream size : 1.10 GiB (82%)
Writing library : x264 core 116 r2019M 9cc407d
Encoding settings : cabac=1 / ref=3 / deblock=1:-1:-1 / analyse=0x3:0x133 / me=hex / subme=7 / psy=1 / psy_rd=1.00:0.15 / mixed_ref=1 / me_range=16 / chroma_me=1 / trellis=1 / 8x8dct=1 / cqm=0 / deadzone=21,11 / fast_pskip=1 / chroma_qp_offset=-3 / threads=8 / sliced_threads=0 / nr=0 / decimate=1 / interlaced=tff / bluray_compat=0 / constrained_intra=0 / bframes=3 / b_pyramid=1 / b_adapt=2 / b_bias=0 / direct=3 / weightb=1 / open_gop=0 / weightp=0 / keyint=250 / keyint_min=25 / scenecut=40 / intra_refresh=0 / rc_lookahead=40 / rc=abr / mbtree=1 / bitrate=2000 / ratetol=1.0 / qcomp=0.60 / qpmin=10 / qpmax=51 / qpstep=4 / ip_ratio=1.40 / aq=1:1.00
Default : Yes
Forced : No

Audio
ID : 2
Format : AC-3
Format/Info : Audio Coding 3
Mode extension : CM (complete main)
Codec ID : A_AC3
Duration : 1h 21mn
Bit rate mode : Constant
Bit rate : 384 Kbps
Channel(s) : 6 channels
Channel positions : Front: L C R, Side: L R, LFE
Sampling rate : 48.0 KHz
Bit depth : 16 bits
Compression mode : Lossy
Stream size : 224 MiB (16%)
Language : Russian
Default : Yes
Forced : No





реклама партнёра


Вернуться к началу
 Профиль  
 
   Похожие торренты   Автор   Торрент   Размер 
В этой теме нет новых непрочитанных сообщений. Не верь су*** из квартиры 23 / Don't Trust the B---- in Apartment 23 [S01] (Крис Кох, Майкл Спиллер, Венди Станцлер) [2012, Комедия, WEB-DLRip | Novamedia]

Nickolas3435

24 | 5

1.71 ГБ

В этой теме нет новых непрочитанных сообщений. Шкатулка проклятия / The Possession [ужасы, триллер, 2012] BDRip-AVC, Dub+Sub [Лицензия]

Dracon

3 | 16

2.04 ГБ

В этой теме нет новых непрочитанных сообщений. Дракула / Dracula [ужасы, триллер, мелодрама, 2012] HDRip, Mvo [Лицензия]

salma3

288 | 20

1.46 ГБ

В этой теме нет новых непрочитанных сообщений. Охотники на демонов / Hellbenders [ужасы, триллер, комедия, 2012] DVD5, Dub [лицензия]

salma3

4 | 3

3.8 ГБ

В этой теме нет новых непрочитанных сообщений. Охотники на демонов / Hellbenders [комедия, ужасы, триллер, 2012] BDRip 1080p, Dub [Лицензия]

salma3

19 | 4

7.1 ГБ

В этой теме нет новых непрочитанных сообщений. Резня зомби / Zombie Massacre [ужасы, фантастика, боевик, 2012] DVD9, Mvo+Sub [лицензия]

salma3

7 | 4

4.66 ГБ

В этой теме нет новых непрочитанных сообщений. Охотники на демонов / Hellbenders [комедия, ужасы, триллер, 2012] BDRip 1080p, Dub [Лицензия | 3D-Video]

Dracon

55 | 8

5.24 ГБ


Начать новую тему Ответить на тему  [ 1 сообщение ] 




Для Мосгорсуда, Роскомнадзора и рекламодателей:: mosgorsud-torrent[собачка]yandex.ru