Торрент файл
скачать торрент магнет ссылка Добавлен: 18 янв 2013, 19:00
Размер: 1.99 ГБ
Сидеров: 15
Личеров: 5
Статус: (salma3)
Автор

СообщениеДобавлено: 18 янв 2013, 19:00 

В сети
Супермодератор
Аватара пользователя
Дата регистрации:
15 фев 2012, 16:44
Возраст: 27
Спасибо: 5140 / 2090
Сообщения: 17470

Три дня Кондора / Three Days of the Condor

Год выхода: 1975
Жанр: боевик, триллер, мелодрама, драма, детектив
Режиссер: Сидни Поллак
В ролях: Роберт Редфорд, Фэй Данауэй, Клифф Робертсон, Макс фон Сюдов, Джон Хаусмен, Эддисон Пауэлл, Уолтер МакДжинн,

О фильме:
Работающий в одном из замаскированных отделов ЦРУ в Нью-Йорке парень по имени Джо Тэрнер занимается анализом бульварно-детективной литературы, в которой выискивает интересующие Ведомство «оригинальные приёмы». В последний предрождественский рабочий день Тэрнер, вернувшись после обеденного перерыва с ужасом обнаруживает в конторе трупы своих 7-х коллег. Он звонит по «аварийному» телефону в дежурную часть ЦРУ. Начальство назначает ему встречу. Но… она оказывается ловушкой. Тэрнеру остаётся лишь одно: на свой страх и риск выяснить причины устроенной на него охоты.



Страна: США, Dino De Laurentiis Productions, Paramount Pictures, Wildwood Enterprises
Продолжительность: 01:57:22
Перевод: Профессиональный (полное дублирование)

Файл
Кодек: XviD
Качество: DVDRip
Видео: 720x304 (2,35:1), 25 fps, XviD MPEG-4 ~1971 kbps avg, 0.376 bit/pi
Аудио: 48 kHz, АС3, 6 ch, Front: L C R, Side: L R, LFE ~448.00 kbps avg


Общее
Полное имя : C:\Documents and Settings\Admin\Мои документы\Downloads\Tri.dnj.kondora.1975.XviD.BDRip.avi
Формат : AVI
Формат/Информация : Audio Video Interleave
Профиль формата : OpenDML
Настройки формата : rec
Размер файла : 1,99 Гбайт
Продолжительность : 1 ч. 57 м.
Общий поток : 2424 Кбит/сек
Программа кодирования : AVI-Mux GUI 1.17.8.3, Feb 16 201019:42:50
Видео
Идентификатор : 0
Формат : MPEG-4 Visual
Профиль формата : Advanced Simple@L5
Параметр BVOP формата : 4
Параметр QPel формата : Нет
Параметр GMC формата : Без точки перехода
Параметр матрицы формата : Выборочная
Идентификатор кодека : XVID
Идентификатор кодека/Подсказка : XviD
Продолжительность : 1 ч. 57 м.
Битрейт : 1971 Кбит/сек
Ширина : 720 пикселей
Высота : 304 пикселя
Соотношение сторон : 2,35:1
Частота кадров : 23,976 кадра/сек
Цветовое пространство : YUV
Субдискретизация насыщенности : 4:2:0
Битовая глубина : 8 бит
Тип развёртки : Прогрессивная
Метод сжатия : С потерями
Бит/(Пиксели*Кадры) : 0.376
Размер потока : 1,62 Гбайт (81%)
Библиотека кодирования : XviD 1.2.1 (UTC 2008-12-04)
Аудио
Идентификатор : 1
Формат : AC-3
Формат/Информация : Audio Coding 3
Расширение режима : CM (complete main)
Параметр Endianness формата : Big
Идентификатор кодека : 2000
Продолжительность : 1 ч. 57 м.
Вид битрейта : Постоянный
Битрейт : 448 Кбит/сек
Каналы : 6 каналов
Расположение каналов : Front: L C R, Side: L R, LFE
Частота : 48,0 КГц
Битовая глубина : 16 бит
Метод сжатия : С потерями
Размер потока : 376 Мбайт (18%)
Выравнивание : Соединение по промежуткам
Продолжительность промежутка : 64 мс. (1,54 видеокадра)
Время предзагрузки промежутка : 192 мс.
Заголовок : ДБ




реклама партнёра


Вернуться к началу
 Профиль Отправить личное сообщение  
 
   Похожие торренты   Автор   Торрент   Размер 
В этой теме нет новых непрочитанных сообщений. Пятница Фостер / Friday Foster [боевик, триллер, драма, мелодрама, криминал, 1975] DVDRip, Dvo [НТВ+]

salma3

8 | 2

1.32 ГБ

В этой теме нет новых непрочитанных сообщений. 3 дня на убийство / 3 Days to Kill 3 дня на убийство / 3 Days to Kill [боевик, триллер, драма, 2014] BDRip 720p, Dub [Лицензия]

Dracon

865 | 51

3.48 ГБ

В этой теме нет новых непрочитанных сообщений. Страх над городом / Peur sur la ville [драма, триллер, боевик, 1975] DVDRip, Mvo

salma3

60 | 5

2.19 ГБ

В этой теме нет новых непрочитанных сообщений. Четыре дня в сентябре / O Que e Isso Companheiro? / Four Days in September [боевик, триллер, драма, история, 1997] DVDRip, Avo

salma3

18 | 2

1.59 ГБ

В этой теме нет новых непрочитанных сообщений. Прощай, моя красавица / Farewell, My Lovely [детектив, триллер, 1975] DVDRip, Mvo

salma3

20 | 4

1.46 ГБ

В этой теме нет новых непрочитанных сообщений. Три дня на побег / The Next Three Days [триллер, драма, мелодрама, криминал, 2010] BDRip, Dub

salma3

118 | 4

1.46 ГБ

В этой теме нет новых непрочитанных сообщений. Санкция на пике Эйгера / The Eiger Sanction [Боевик, триллер, мелодрама, приключения, 1975] BDRip 720p, Dub+Mvo+Sub

salma3

20 | 2

4.56 ГБ


Начать новую тему Ответить на тему  [ 1 сообщение ] 




Для Мосгорсуда, Роскомнадзора и рекламодателей:: mosgorsud-torrent[собачка]yandex.ru