Торрент файл
скачать торрент магнет ссылка Добавлен: 18 янв 2013, 16:29
Размер: 1.55 ГБ
Сидеров: 0
Личеров: 2
Статус: (salma3)
Автор

СообщениеДобавлено: 18 янв 2013, 16:29 

Не в сети
Зам. Админа
Аватара пользователя
Дата регистрации:
02 дек 2010, 12:39
Спасибо: 12461 / 214
Сообщения: 27968
Год выхода: 2012
Жанр: ужасы, триллер
Режиссер: Уле Борнедаль
В ролях: Джеффри Дин Морган, Наташа Калис, Кира Седжвик, Мэдисон Девенпорт, Роб ЛаБелль, Матисьяху, Джей Бразо, Грант Шоу, Нана Гбивонио, Анна Хэган

О фильме:
Девочка покупает винтажную шкатулку на ярмарке в одном из соседних дворов. Поначалу родители не видят повода для беспокойства, когда их младшая дочь становится одержима новой игрушкой. Со временем поведение девочки становится все более странным, а реакции неожиданными, родители пытаются раскрыть секрет шкатулки. Они не подозревают, что в деревянной коробке живет злой дух, который творит страшные вещи со своими хозяевами — их было много и владели они этим «сокровищем» очень недолго. Отец девочки объединяется с бывшей женой в попытках найти способ снять проклятие с их ребенка.



Выпущено: США
Продолжительность: 01:32:13
Озвучивание: Дублированное [лицензия]

Файл
Формат: MKV
Качество: HDRip-AVC
Видео:MPEG4 Video (H264) 720x296 (713:296) 23.976fps
Аудио: Dolby AC3 48000Hz 6ch 448kbps
семпл

General
Unique ID : 278857865626372275709963866281907015968 (0xD1CA1244E5747FD93D3BC4FD11DF5120)
Complete name : D:\torrent\Shkatulka.prokljatija.2012.mkv
Format : Matroska
Format version : Version 2
File size : 1.55 GiB
Duration : 1h 32mn
Overall bit rate : 2 410 Kbps
Movie name : IRONCLUB
Writing application : XviD4PSP 6.0 / 53.6.0
Writing library : XviD4PSP 6.0 / 53.6.0

Video
ID : 1
Format : AVC
Format/Info : Advanced Video Codec
Format profile : High@L4.1
Format settings, CABAC : Yes
Format settings, ReFrames : 3 frames
Codec ID : V_MPEG4/ISO/AVC
Duration : 1h 32mn
Bit rate : 2 000 Kbps
Width : 720 pixels
Height : 296 pixels
Display aspect ratio : 2.40:1
Original display aspect ratio : 2.40:1
Frame rate mode : Variable
Frame rate : 23.976 fps
Color space : YUV
Chroma subsampling : 4:2:0
Bit depth : 8 bits
Scan type : Progressive
Bits/(Pixel*Frame) : 0.391
Stream size : 1.23 GiB (79%)
Title : hahay0yo@CHD
Writing library : x264 core 116 r2019M 9cc407d
Encoding settings : cabac=1 / ref=3 / deblock=1:-1:-1 / analyse=0x3:0x133 / me=hex / subme=7 / psy=1 / psy_rd=1.00:0.15 / mixed_ref=1 / me_range=16 / chroma_me=1 / trellis=1 / 8x8dct=1 / cqm=0 / deadzone=21,11 / fast_pskip=1 / chroma_qp_offset=-3 / threads=8 / sliced_threads=0 / nr=0 / decimate=1 / interlaced=0 / bluray_compat=0 / constrained_intra=0 / bframes=3 / b_pyramid=1 / b_adapt=2 / b_bias=0 / direct=3 / weightb=1 / open_gop=0 / weightp=2 / keyint=230 / keyint_min=23 / scenecut=40 / intra_refresh=0 / rc_lookahead=40 / rc=abr / mbtree=1 / bitrate=2000 / ratetol=1.0 / qcomp=0.60 / qpmin=10 / qpmax=51 / qpstep=4 / ip_ratio=1.40 / aq=1:1.00
Language : English
Default : Yes
Forced : No

Audio
ID : 2
Format : AC-3
Format/Info : Audio Coding 3
Mode extension : CM (complete main)
Codec ID : A_AC3
Duration : 1h 32mn
Bit rate mode : Constant
Bit rate : 448 Kbps
Channel(s) : 6 channels
Channel positions : Front: L C R, Side: L R, LFE
Sampling rate : 48.0 KHz
Bit depth : 16 bits
Compression mode : Lossy
Stream size : 296 MiB (19%)
Title : DTS 5.1 @ 755 kbps - Dub, R5
Language : Russian
Default : Yes
Forced : No





реклама партнёра


Вернуться к началу
 Профиль  
 
   Похожие торренты   Автор   Торрент   Размер 
В этой теме нет новых непрочитанных сообщений. Шкатулка проклятия / The Possession [ужасы, триллер, 2012] BDRip-AVC, Dub+Sub [Лицензия]

Dracon

3 | 16

2.04 ГБ

В этой теме нет новых непрочитанных сообщений. Одержимая бесом / Possession [ужасы, драма, 1981] BDRip, Dvo [Лицензия]

salma3

6 | 2

1.46 ГБ

В этой теме нет новых непрочитанных сообщений. Мэрайа Мунди и шкатулка Мидаса / The Adventurer: The Curse of the Midas Box [Фэнтези, приключения, семейный, 2013] HDRip, Mvo [лицензия]

salma3

329 | 4

1.46 ГБ

В этой теме нет новых непрочитанных сообщений. Эксперимент одержимость / The Possession Experiment [Ужасы, 2016] HDRip, Avo

salma3

592 | 46

1.27 ГБ

В этой теме нет новых непрочитанных сообщений. Одержимость Майкла Кинга / The Possession of Michael King [Ужасы, 2014] HDRip, Avo

Dracon

18 | 2

1.46 ГБ

В этой теме нет новых непрочитанных сообщений. Грэйс / Grace: The Possession [ужасы, триллер, 2014] WEB-DLRip, Dvo

salma3

313 | 11

1.37 ГБ

В этой теме нет новых непрочитанных сообщений. Одержимость Майкла Кинга / The Possession of Michael King [Ужасы, 2014] HDRip, dub [чистый звук]

Dracon

245 | 35

1.36 ГБ


СообщениеДобавлено: 19 янв 2013, 13:36 

Не в сети
Релизёр
Аватара пользователя
Дата регистрации:
02 апр 2011, 13:05
Возраст: 34
Спасибо: 55 / 32
Сообщения: 168
Откуда: Калининград
Посмотрел вчера этот фильм. Довольно не плохой ужастик, конечно пересматривать уже не буду, но смотрелось на одном дыхании.

_________________
Логика может привести Вас от пункта А к пункту Б, а воображение — куда угодно. © Эйнштейн


Вернуться к началу
 Профиль Отправить личное сообщение  
 
Начать новую тему Ответить на тему  [ Сообщений: 2 ] 




Для Мосгорсуда, Роскомнадзора и рекламодателей:: mosgorsud-torrent[собачка]yandex.ru