Торрент файл
скачать торрент магнет ссылка Добавлен: 17 янв 2013, 20:03
Размер: 1.46 ГБ
Сидеров: 23
Личеров: 5
Статус: (salma3)
Автор

СообщениеДобавлено: 17 янв 2013, 20:03 

В сети
Супермодератор
Аватара пользователя
Дата регистрации:
15 фев 2012, 16:44
Возраст: 27
Спасибо: 5136 / 2089
Сообщения: 17411

Последняя надежда человечества / Against the Dark

Год выхода: 2009
Жанр: ужасы, фантастика, боевик, триллер
Режиссер: Ричард Крудо
В ролях: Стивен Сигал, Дэнни Мидуинтер, Таноай Рид, Дженна Харрисон, Эмма Кэтервуд, Стефен Хэйгэн

О фильме:
Виртуоз катаны Тао ведет специальный отряд бывших военных на геноцидную миссию. Их цель — вампиры. На постапокалиптической планете, высосанной до дна кровожадными упырями, кучка оставшихся в живых пойманы в ловушку в зараженной больнице. Тао — их последняя надежда, и он знает, что единственная панацея — резня. Настал час решающего противостояния плотоядным вампирам, и терять нечего, кроме остатков человечества.



Страна: США, Румыния
Продолжительность: 01:30:05
Перевод: Профессиональный (многоголосый, закадровый)

Файл
Кодек: XviD
Качество: DVDRip
Видео: 704x368(1,913 ), 25,000 fps, AVC (H.264),Main@L5.1 ,~1874kbps avg,0.289 bit/pixel
Аудио: 48.0 kHz, AC3, (Front: L C R, Side: L R, LFE) , 6 ch ~448Kbps avg


Общее
Уникальный идентификатор: 69805771610940438359591793610951482379 (0x34841A42EC2A76156D1DB78EB817DC0B)
Полное имя: D:\Against the Dark_[torrents.ru].mkv
Формат: Matroska
Размер файла: 1,46 Гбайт
Продолжительность: 1 ч. 30 м.
Общий поток: 2328 Кбит/сек
Дата кодирования: UTC 2009-02-08 01:59:28
Программа кодирования: VirtualDubMod 1.5.4.1 (build 2128/release)
Библиотека кодирования: libebml-0.5.0 & libmatroska-0.5.0
Видео
Идентификатор: 1
Формат: AVC
Формат/Информация: Advanced Video Codec
Профиль формата: Main@L5.1
Параметр CABAC формата: Да
Параметр ReFrames формата: 2 кадра
Идентификатор кодека: H264
Продолжительность: 1 ч. 30 м.
Битрейт: 1874 Кбит/сек
Ширина: 704 пикс.
Высота: 368 пикс.
Соотношение сторон: 1,913
Частота кадров: 25,000 кадр/сек
Цветовое пространство: YUV
Подвыборка цветности: 4:2:0
Битовая глубина: 8 бит
Тип развёртки: Прогрессивная
Бит/(Пиксели*Кадры): 0.289
Размер потока: 1,15 Гбайт (79%)
Библиотека кодирования: x264 core 47 svn-532
Настройки программы: cabac=1 / ref=1 / deblock=1:0:0 / analyse=0x1:0x131 / me=hex / subme=5 / brdo=0 / mixed_ref=0 / me_range=16 / chroma_me=1 / trellis=1 / 8x8dct=0 / cqm=0 / chroma_qp_offset=0 / slices=1 / nr=0 / decimate=1 / bframes=2 / b_pyramid=0 / b_adapt=1 / b_bias=0 / direct=2 / wpredb=1 / bime=0 / keyint=250 / keyint_min=25 / scenecut=40 / rc=2pass / bitrate=1874 / ratetol=1.0 / rceq='blurCplx^(1-qComp)' / qcomp=0.60 / qpmin=10 / qpmax=51 / qpstep=4 / cplxblur=20.0 / qblur=0.5 / ip_ratio=1.40 / pb_ratio=1.30
Язык: English
Аудио
Идентификатор: 2
Формат: AC-3
Формат/Информация: Audio Coding 3
Расширение режима: CM (complete main)
Идентификатор кодека: A_AC3
Продолжительность: 1 ч. 30 м.
Вид битрейта: Постоянный
Битрейт: 448 Кбит/сек
Каналы: 6 каналов
Расположение каналов: Front: L C R, Side: L R, LFE
Частота: 48,0 КГц
Битовая глубина: 16 бит
Метод сжатия: С потерями
Задержка видео: -80 мс.
Размер потока: 289 Мбайт (19%)
Язык: English
Меню
00:00:00.000: Ch. 01 @ 00:00:00
00:04:06.600: Ch. 02 @ 00:04:06
00:05:25.200: Ch. 03 @ 00:05:25
00:07:19.800: Ch. 04 @ 00:07:19
00:09:25.200: Ch. 05 @ 00:09:25
00:12:06.000: Ch. 06 @ 00:12:06
00:16:40.200: Ch. 07 @ 00:16:40
00:19:08.400: Ch. 08 @ 00:19:08
00:23:56.400: Ch. 09 @ 00:23:56
00:27:25.200: Ch. 10 @ 00:27:25
00:30:05.400: Ch. 11 @ 00:30:05
00:32:36.000: Ch. 12 @ 00:32:36
00:36:01.800: Ch. 13 @ 00:36:01
00:42:04.800: Ch. 14 @ 00:42:04
00:45:07.200: Ch. 15 @ 00:45:07
00:48:51.000: Ch. 16 @ 00:48:51
00:53:10.200: Ch. 17 @ 00:53:10
00:55:57.000: Ch. 18 @ 00:55:57
00:59:27.000: Ch. 19 @ 00:59:27
01:03:12.000: Ch. 20 @ 01:03:12
01:06:54.000: Ch. 21 @ 01:06:54
01:11:10.800: Ch. 22 @ 01:11:10
01:14:17.400: Ch. 23 @ 01:14:17
01:15:42.000: Ch. 24 @ 01:15:42
01:18:26.400: Ch. 25 @ 01:18:26
01:21:41.400: Ch. 26 @ 01:21:41
01:25:53.400: Ch. 27 @ 01:25:53
01:27:07.200: Ch. 28 @ 01:27:07
01:30:03.600: Ch. 29 @ 01:30:03
Рабочее название фильма — «Last night».








реклама партнёра


Вернуться к началу
 Профиль Отправить личное сообщение  
 
   Похожие торренты   Автор   Торрент   Размер 
В этой теме нет новых непрочитанных сообщений. Последняя надежда человечества / Against the Dark [Ужасы, боевик, триллер, 2009] DVDRip, Mvo

salma3

0 | 2

699.76 МБ

В этой теме нет новых непрочитанных сообщений. Последняя надежда / Def-Con 4 [фантастика, боевик, 1985] DVDRip, Avo

salma3

25 | 7

1.46 ГБ

В этой теме нет новых непрочитанных сообщений. Обитель зла: Последняя глава / Resident Evil: The Final Chapter [Ужасы, фантастика, боевик, триллер, 2016] HDRip-1080p, dub [Трейлер]

marya111

775 | 8

101.03 МБ

В этой теме нет новых непрочитанных сообщений. Чернокнижник 3: Последняя битва / Warlock III: The End of Innocence [ужасы, триллер, мистика, 1999] DVDRip, Dvo

salma3

62 | 9

1.35 ГБ

В этой теме нет новых непрочитанных сообщений. Последняя граница / The last border / Viimeisellä rajalla [Фантастика, Боевик, 1993] DVDRip, Avo

salma3

5 | 3

1.5 ГБ

В этой теме нет новых непрочитанных сообщений. Один в темноте / Alone in the Dark [Ужасы, триллер, фантастика, 2005] BDRip 720p, Dub+Mvo+Dvo+Avo

salma3

17 | 2

6.5 ГБ

В этой теме нет новых непрочитанных сообщений. Ангел тьмы / Dark Angel [ужасы, фантастика, боевик, 1990] BDRip 720p, 3Mvo+2Dvo+4Avo+Sub

salma3

36 | 22

7.88 ГБ


Начать новую тему Ответить на тему  [ 1 сообщение ] 




Для Мосгорсуда, Роскомнадзора и рекламодателей:: mosgorsud-torrent[собачка]yandex.ru