Торрент файл
скачать торрент магнет ссылка Добавлен: 17 янв 2013, 16:44
Размер: 2.19 ГБ
Сидеров: 10
Личеров: 4
Статус: (drink)
Автор

СообщениеДобавлено: 17 янв 2013, 16:44 

Не в сети
Дата регистрации:
10 фев 2011, 13:47
Спасибо: 3 / 0
Сообщения: 10
Информация о фильме
Название:Объезд
Оригинальное название: Snarveien
Год выпуска: 2009
Жанр:Ужасы
Режиссер: Северин Эскленд
В ролях: Марта Кристенсен, Сондре Крогтольф, Йенс Хюльтен, Йохан Хеденбеог, Малин Кинг, Инга Дидон Хари, Эппе Ларсен, Кнут Валле, Миккель Гауп



О фильме:
Эта кровавая история приключилась с Мартином и Линой, молодой парой, ехавшей домой, в Норвегию, через Швецию. По пути они наткнулись на закрытый участок дороги, и им пришлось повернуть в объезд…



Страна: Норвегия
Продолжительность: 01:16:59
Перевод: Любительский одноголосый






Файл
Качество: BDRip 720
Видео: 1280x544 (2.35:1), 23.976 fps, 3 621 Kbps
Звук: AC-3, 48.0 KHz, 2 ch, 448 Kbps, CBR

Общее
Уникальный идентификатор: 201775630542764936159950684104870744329 (0x97CC92A8FBEDB32AA93D6AA2288A5109)
Полное имя: D:Snarveien.2009.BDRip720.Torrent-Xzona.mkv
Формат: Matroska
Версия формата: Version 2
Размер файла: 2,19 Гбайт
Продолжительность: 1 ч. 16 м.
Общий поток: 4069 Кбит/сек
Дата кодирования: UTC 2013-01-17 01:09:13
Программа кодирования: mkvmerge v5.8.0 ('No Sleep / Pillow') built on Sep2 2012 15:37:04
Библиотека кодирования: libebml v1.2.3 + libmatroska v1.3.0

Видео
Идентификатор: 1
Формат: AVC
Формат/Информация: Advanced Video Codec
Профиль формата: High@L4.1
Параметр CABAC формата: Да
Параметр ReFrames формата: 5 кадров
Идентификатор кодека: V_MPEG4/ISO/AVC
Продолжительность: 1 ч. 16 м.
Битрейт: 3621 Кбит/сек
Ширина: 1280 пикселей
Высота: 544 пикселя
Соотношение сторон: 2,35:1
Режим частоты кадров: Постоянный
Частота кадров: 23,976 кадра/сек
Цветовое пространство: YUV
Субдискретизация насыщенности: 4:2:0
Битовая глубина: 8 бит
Тип развёртки: Прогрессивная
Бит/(Пиксели*Кадры): 0.217
Размер потока: 1,90 Гбайт (87%)
Библиотека кодирования: x264 core 129 r2230 1cffe9f
Настройки программы: cabac=1 / ref=5 / deblock=1:-1:-1 / analyse=0x3:0x133 / me=umh / subme=10 / psy=1 / psy_rd=1.00:0.15 / mixed_ref=1 / me_range=16 / chroma_me=1 / trellis=2 / 8x8dct=1 / cqm=0 / deadzone=21,11 / fast_pskip=1 / chroma_qp_offset=-3 / threads=9 / lookahead_threads=1 / sliced_threads=0 / nr=0 / decimate=1 / interlaced=0 / bluray_compat=0 / constrained_intra=0 / bframes=5 / b_pyramid=2 / b_adapt=2 / b_bias=0 / direct=1 / weightb=1 / open_gop=0 / weightp=2 / keyint=240 / keyint_min=23 / scenecut=40 / intra_refresh=0 / rc_lookahead=60 / rc=2pass / mbtree=1 / bitrate=3621 / ratetol=1.0 / qcomp=0.60 / qpmin=0 / qpmax=69 / qpstep=4 / cplxblur=20.0 / qblur=0.5 / ip_ratio=1.40 / aq=1:1.00
Язык: English
Default: Да
Forced: Нет

Аудио
Идентификатор: 2
Формат: AC-3
Формат/Информация: Audio Coding 3
Расширение режима: CM (complete main)
Параметр Endianness формата: Big
Идентификатор кодека: A_AC3
Продолжительность: 1 ч. 16 м.
Вид битрейта: Постоянный
Битрейт: 448 Кбит/сек
Каналы: 2 канала
Расположение каналов: Front: L R
Частота: 48,0 КГц
Битовая глубина: 16 бит
Метод сжатия: С потерями
Размер потока: 247 Мбайт (11%)
Язык: Russian
Default: Да
Forced: Нет






Релиз от: &






реклама партнёра


Вернуться к началу
 Профиль Отправить личное сообщение  
 
   Похожие торренты   Автор   Торрент   Размер 
В этой теме нет новых непрочитанных сообщений. Объезд / Detour [Триллер, 2013] BDRip 1080p, Mvo

salma3

184 | 30

4.23 ГБ

В этой теме нет новых непрочитанных сообщений. Объезд / Detour [Триллер, 2013] WEB-DL 720p, Dvo+Sub

salma3

50 | 4

2.16 ГБ

В этой теме нет новых непрочитанных сообщений. Объезд / Detour [Триллер, 2013] HDRip, Mvo [Лицензия]

Dracon

3 | 2

1.46 ГБ

В этой теме нет новых непрочитанных сообщений. Объезд / Detour [Триллер, 2013] WEB-DLRip, Mvo [Лицензия]

Dracon

9 | 3

1.45 ГБ

В этой теме нет новых непрочитанных сообщений. Склеп / The Crypt [Ужасы, Триллер, 2009] BDRip, Dvo

salma3

0 | 2

1.46 ГБ

В этой теме нет новых непрочитанных сообщений. Склеп / The Crypt [ужасы, триллер, 2009] BDRip 720p, Dvo

salma3

23 | 3

4.49 ГБ

В этой теме нет новых непрочитанных сообщений. Посланники 2: Пугало / Messengers 2: The Scarecrow [ужасы, 2009] BDRip, Dvo

salma3

31 | 4

1.45 ГБ


Начать новую тему Ответить на тему  [ 1 сообщение ] 




Для Мосгорсуда, Роскомнадзора и рекламодателей:: mosgorsud-torrent[собачка]yandex.ru