Торрент файл
скачать торрент магнет ссылка Добавлен: 16 янв 2013, 17:08
Размер: 1.58 ГБ
Сидеров: 38
Личеров: 6
Статус: (salma3)
Автор

СообщениеДобавлено: 16 янв 2013, 17:08 

Не в сети
Супермодератор
Аватара пользователя
Дата регистрации:
15 фев 2012, 16:44
Возраст: 27
Спасибо: 5130 / 2089
Сообщения: 17350

Защита от дурака / Foolproof

Год выхода: 2003
Жанр: боевик, триллер, комедия, криминал
Режиссер: Уильям Филлипс
В ролях: Райан Рейнольдс, Кристин Бут, Джорис Джарски, Шон Грегори Салливан, Тара Слоун, Су Гарай, Уильям Хаус, Вэй Чой, Джеймс Оллоди

О фильме:
Кевин, Саманта и Боб — члены частного клуба «Фулпрув» -занимаются разработкой технических способов защиты от грабежей и теоретическим осуществлением самых невыполнимых ограблений. В реальности же они не осуществили ни одного грабежа. Но все меняется, когда бандит Лео — криминальный авторитет, заполучает их план по краже бриллиантов и успешно осуществляет ограбление.Он шантажирует горе-умников, угрожая выдать их как соучастников, требуя разработать план еще одного ограбления, где на кон поставлены 10 млн $. Теперь ребятам нужен не только тщательно разработанный план ограбления, но как никогда раньше надежный способ остаться в живых...



Страна: Канада
Продолжительность: 01:33:48
Перевод: Профессиональный (полное дублирование)

Файл
Кодек: AVC
Качество: HDRip
Видео: 704x 384 (1,85:1),23,976fps, AVC MPEG-4 (H.264), High@L4.1~1841 kbps avg, 0.284 bit/pixel
Аудио#1: русский[/color] 48 kHz, AC3 Dolby Digital, 3/2 (L,C,R,l,r) + LFE ch, ~384 kbps avg
Аудио#2: английский 48 kHz, AC3 Dolby Digital, 3/2 (L,C,R,l,r) + LFE ch, ~192 kbps avg


Автор рипа:
Общее
Уникальный идентификатор: 221157187085188306680454942929047524740 (0xA661532CCD6E9AC7B8A74EB1BFD41584)
Полное имя: H:Foolproof.mkv
Формат: Matroska
Версия формата: Version 2
Размер файла: 1,58 Гбайт
Продолжительность: 1 ч. 33 м.
Общий поток: 2418 Кбит/сек
Дата кодирования: UTC 2012-12-31 10:19:32
Программа кодирования: mkvmerge v4.4.0 ('Die Wiederkehr') сборка от Oct 31 2010 21:52:48
Библиотека кодирования: libebml v1.0.0 + libmatroska v1.0.0
Видео
Идентификатор: 1
Формат: AVC
Формат/Информация: Advanced Video Codec
Профиль формата: High@L4.1
Параметр CABAC формата: Да
Параметр ReFrames формата: 8 кадров
Режим смешивания: Header stripping
Идентификатор кодека: V_MPEG4/ISO/AVC
Продолжительность: 1 ч. 33 м.
Битрейт: 1841 Кбит/сек
Ширина: 704 пикселя
Высота: 384 пикселя
Соотношение сторон: 1,85:1
Частота кадров: 23,976 кадра/сек
Цветовое пространство: YUV
Субдискретизация насыщенности: 4:2:0
Битовая глубина: 8 бит
Тип развёртки: Прогрессивная
Бит/(Пиксели*Кадры): 0.284
Размер потока: 1,18 Гбайт (74%)
Библиотека кодирования: x264 core 125 r2200 999b753
Настройки программы: cabac=1 / ref=8 / deblock=1:0:0 / analyse=0x3:0x133 / me=umh / subme=7 / psy=1 / psy_rd=0.40:0.00 / mixed_ref=1 / me_range=16 / chroma_me=1 / trellis=2 / 8x8dct=1 / cqm=0 / deadzone=21,11 / fast_pskip=0 / chroma_qp_offset=-2 / threads=6 / lookahead_threads=1 / sliced_threads=0 / nr=0 / decimate=1 / interlaced=0 / bluray_compat=0 / constrained_intra=0 / bframes=8 / b_pyramid=2 / b_adapt=1 / b_bias=0 / direct=3 / weightb=0 / open_gop=0 / weightp=2 / keyint=250 / keyint_min=23 / scenecut=40 / intra_refresh=0 / rc_lookahead=50 / rc=2pass / mbtree=1 / bitrate=1841 / ratetol=1.0 / qcomp=0.70 / qpmin=0 / qpmax=69 / qpstep=4 / cplxblur=20.0 / qblur=0.5 / ip_ratio=1.40 / aq=1:0.60
Default: Да
Forced: Нет
Аудио #1
Идентификатор: 2
Формат: AC-3
Формат/Информация: Audio Coding 3
Расширение режима: CM (complete main)
Параметр Endianness формата: Big
Режим смешивания: Header stripping
Идентификатор кодека: A_AC3
Продолжительность: 1 ч. 33 м.
Вид битрейта: Постоянный
Битрейт: 384 Кбит/сек
Каналы: 6 каналов
Расположение каналов: Front: L C R, Side: L R, LFE
Частота: 48,0 КГц
Битовая глубина: 16 бит
Метод сжатия: С потерями
Размер потока: 258 Мбайт (16%)
Язык: Russian
Default: Да
Forced: Нет
Аудио #2
Идентификатор: 3
Формат: AC-3
Формат/Информация: Audio Coding 3
Расширение режима: CM (complete main)
Параметр Endianness формата: Big
Режим смешивания: Header stripping
Идентификатор кодека: A_AC3
Продолжительность: 1 ч. 33 м.
Вид битрейта: Постоянный
Битрейт: 192 Кбит/сек
Каналы: 6 каналов
Расположение каналов: Front: L C R, Side: L R, LFE
Частота: 48,0 КГц
Битовая глубина: 16 бит
Метод сжатия: С потерями
Размер потока: 129 Мбайт (8%)
Язык: English
Default: Нет
Forced: Нет









реклама партнёра


Вернуться к началу
 Профиль Отправить личное сообщение  
 
   Похожие торренты   Автор   Торрент   Размер 
В этой теме нет новых непрочитанных сообщений. Голливудские копы / Hollywood Homicide [боевик, триллер, комедия, криминал, 2003] HDRip, Dub [КПК]

salma3

5 | 4

1003.72 МБ

В этой теме нет новых непрочитанных сообщений. Федеральная защита / Federal Protection [Боевик, триллер, драма, криминал, 2001] DVDRip, Avo

salma3

47 | 12

1.45 ГБ

В этой теме нет новых непрочитанных сообщений. Во имя мести / Out For a Kill [Боевик, триллер, криминал, 2003] HDRip, Mvo

salma3

13 | 4

1.46 ГБ

В этой теме нет новых непрочитанных сообщений. Плохие парни 2 / Bad Boys II [боевик, триллер, комедия, криминал, 2003] BDRip 720p, Dub+Sub

salma3

1 | 3

16.94 ГБ

В этой теме нет новых непрочитанных сообщений. Голливудские копы / Hollywood Homicide [боевик, триллер, комедия, криминал, 2003] BDRip 720p, Dub+Mvo+Sub

salma3

2 | 3

7.21 ГБ

В этой теме нет новых непрочитанных сообщений. 48 часов / 48 Hrs. [боевик, триллер, драма, комедия, криминал, 1982] HDRip, Mvo [НТВ+]

salma3

36 | 7

1.45 ГБ

В этой теме нет новых непрочитанных сообщений. От колыбели до могилы / Cradle 2 the Grave [боевик, криминал, 2003] HDRip, Mvo

salma3

145 | 18

1.45 ГБ


Начать новую тему Ответить на тему  [ 1 сообщение ] 




Для Мосгорсуда, Роскомнадзора и рекламодателей:: mosgorsud-torrent[собачка]yandex.ru