Торрент файл
скачать торрент магнет ссылка Добавлен: 16 янв 2013, 17:01
Размер: 2 ГБ
Сидеров: 47
Личеров: 22
Статус: (salma3)
Автор

СообщениеДобавлено: 16 янв 2013, 17:01 

Не в сети
Супермодератор
Аватара пользователя
Дата регистрации:
15 фев 2012, 16:44
Возраст: 27
Спасибо: 5121 / 2089
Сообщения: 17282

Американский Ниндзя 5 / American Ninja 5

Год выхода: 1993
Жанр: боевик
Режиссер: Бобби Джин Леонард
В ролях: Дэвид Брэдли (II), Ли Райес, Энн Дюпонт, Пэт Морита, Джеймс Лью, Тадаши Ямашита, Клемент Фон Франкенштейн, Марко Фьорини, Аарон Ипале, Норман Бертон

О фильме:
Несмотря на оригинальное название, подразумевающее продолжение известной истории, этот фильм продолжением не является. Это совершенно самостоятельный фильм. Искусству восточных рукопашных поединков американец Джо учится у Мастера Тетсу, но однажды Джо и самому приходится стать наставником: он должен временно присматривать за племянником своего учителя, а Хиро — парнишка, помешанный на компьютерах — и знать ничего не хочет ни о каких ниндзя, нунчаках, тэквондо и кикбоксерах. Когда Джо и Хиро приняли приглашение юной девушки Лизы вместе пообедать, они не предполагали, что ее скоро похитят злодеи, жаждущие пошантажировать ее отца, известного ученого. И тут появился Джо…



Страна: США
Продолжительность: 01:42:56
Перевод: Любительский (одноголосый)

Файл
Кодек: XviD
Качество: DVDRip
Видео: 720х544 (4:3), 23.976 fps, XviD MPEG-4 ~2380 kbps avg, 0.253 bit/pixel
Аудио#1: Русский: 48 kHz, АС3, 2 ch, Front: L R ~192.00 kbps avg
Аудио#2: Английский: 48 kHz, АС3, 2 ch, Front: L R ~192.00 kbps avg

Общее
Полное имя: C:\Users\admin\Pictures\Downloads\americanskij_nindza[tfile.ru]inja_5_[tfile.ru].avi
Формат: AVI
Формат/Информация: Audio Video Interleave
Профиль формата: OpenDML
Размер файла: 2,00 Гбайт
Продолжительность: 1 ч. 42 м.
Общий поток: 2775 Кбит/сек
Программа кодирования: VirtualDubMod 1.5.4.1 (build 2178/release)
Библиотека кодирования: VirtualDubMod build 2178/release
Видео
Идентификатор: 0
Формат: MPEG-4 Visual
Профиль формата: Advanced Simple@L5
Параметр BVOP формата: 1
Параметр QPel формата: Нет
Параметр GMC формата: Без точки перехода
Параметр матрицы формата: Выборочная
Идентификатор кодека: XVID
Идентификатор кодека/Подсказка: XviD
Продолжительность: 1 ч. 42 м.
Битрейт: 2380 Кбит/сек
Ширина: 720 пикс.
Высота: 544 пикс.
Соотношение сторон: 4:3
Частота кадров: 23,976 кадр/сек
Цветовое пространство: YUV
Подвыборка цветности: 4:2:0
Битовая глубина: 8 бит
Тип развёртки: Прогрессивная
Метод сжатия: С потерями
Бит/(Пиксели*Кадры): 0.253
Размер потока: 1,71 Гбайт (86%)
Библиотека кодирования: XviD 1.2.1 (UTC 2008-12-04)
Аудио #1
Идентификатор: 1
Формат: AC-3
Формат/Информация: Audio Coding 3
Расширение режима: CM (complete main)
Идентификатор кодека: 2000
Продолжительность: 1 ч. 42 м.
Вид битрейта: Постоянный
Битрейт: 192 Кбит/сек
Каналы: 2 канала
Расположение каналов: Front: L R
Частота: 48,0 КГц
Битовая глубина: 16 бит
Метод сжатия: С потерями
Задержка видео: 15 мс.
Размер потока: 141 Мбайт (7%)
Выравнивание: Разделение по промежуткам
Продолжительность промежутка: 96мс. (2,30 видеокадра)
Время предзагрузки промежутка: 96 ms
Язык: Russian
Аудио #2
Идентификатор: 2
Формат: AC-3
Формат/Информация: Audio Coding 3
Расширение режима: CM (complete main)
Идентификатор кодека: 2000
Продолжительность: 1 ч. 42 м.
Вид битрейта: Постоянный
Битрейт: 192 Кбит/сек
Каналы: 2 канала
Расположение каналов: Front: L R
Частота: 48,0 КГц
Битовая глубина: 16 бит
Метод сжатия: С потерями
Задержка видео: 16 мс.
Размер потока: 141 Мбайт (7%)
Выравнивание: Разделение по промежуткам
Продолжительность промежутка: 96мс. (2,31 видеокадра)
Время предзагрузки промежутка: 96 ms
Язык: English











реклама партнёра


Вернуться к началу
 Профиль Отправить личное сообщение  
 
   Похожие торренты   Автор   Торрент   Размер 
В этой теме нет новых непрочитанных сообщений. Американский ниндзя / American Ninja [Боевик, приключения, 1985] HDTVRip 1080p, Mvo+Sub

salma3

35 | 3

8.05 ГБ

В этой теме нет новых непрочитанных сообщений. Американский ниндзя / American Ninja [боевик, мелодрама, приключения, 1985] BDRip, Dvo [СТС]

salma3

58 | 6

1.46 ГБ

В этой теме нет новых непрочитанных сообщений. Американский ниндзя 2: Схватка / American Ninja 2: The Confrontation [Боевик, 1987] HDTVRip 1080p, Mvo+Avo

salma3

25 | 4

7.78 ГБ

В этой теме нет новых непрочитанных сообщений. Американский якудза / American Yakuza [Боевик, 1993] DVDRip, Mvo+2Avo

salma3

51 | 6

1.47 ГБ

В этой теме нет новых непрочитанных сообщений. Американский киборг: Стальной воин / American Cyborg: Steel Warrior [фантастика, боевик, приключения, 1993] DVDRip, Avo

salma3

1 | 4

1.44 ГБ

В этой теме нет новых непрочитанных сообщений. Американский самурай / American Samurai [Боевик, 1992] DVDRip, Avo [Гаврилов]

salma3

2 | 3

1.47 ГБ

В этой теме нет новых непрочитанных сообщений. Чужие против ниндзя / Alien vs. Ninja [ужасы, боевик, фантастика, комедия, 2010] DVDRip, Mvo

salma3

4 | 2

1.37 ГБ


Начать новую тему Ответить на тему  [ 1 сообщение ] 




Для Мосгорсуда, Роскомнадзора и рекламодателей:: mosgorsud-torrent[собачка]yandex.ru