Торрент файл
скачать торрент магнет ссылка Добавлен: 16 янв 2013, 14:35
Размер: 1.5 ГБ
Сидеров: 24
Личеров: 4
Статус: (salma3)
Автор

СообщениеДобавлено: 16 янв 2013, 14:35 

В сети
Супермодератор
Аватара пользователя
Дата регистрации:
15 фев 2012, 16:44
Возраст: 27
Спасибо: 5139 / 2089
Сообщения: 17432

Убийцы на замену / The Replacement Killers

Год выхода: 1998
Жанр: боевик, триллер, драма, криминал
Режиссер: Антуан Фукуа
В ролях: Чоу Юнь-Фат, Юрген Прохнов, Майкл Рукер, Майра Сорвино, Карлос Гомес, Фрэнк Медрано

О фильме:
Профессиональный киллер Джон Ли получает новое задание — убить полицейского. Но в решающий момент он не смог нажать на курок: под прицелом оказался ребенок. А мафия не прощает ошибок.

На замену она посылает своих людей, и Джон становится мишенью. Теперь он и мошенница Мэг, которая случайно становится участницей всех событий, попадают под перекрестный огонь преступников и полиции. Единственный способ спастись — скрываться и от тех и от других, но рано или поздно им придется столкнуться лицом к лицу.



Страна: США
Продолжительность: 01:24:03
Перевод: Профессиональный (полное дублирование)

Файл
Кодек: AVC
Качество: DVDRip
Видео: 720x304 (2,35:1), 25,000 fps, AVC (H.264), High@L3.1,~2175kbps avg,0.397bit/pixel
Аудио: 48.0 kHz, AC3, (Front: L C R, Side: L R, LFE) , 6 ch ~ 384Kbps avg


Общее
Уникальный идентификатор: 209523749680388057915347899997768800410 (0x9DA0CE6D6926A158B809DC2DC86A589A)
Полное имя: D:\Ubijci.Na.Zamenu.mkv
Формат: Matroska
Версия формата: Version 2
Размер файла: 1,50 Гбайт
Продолжительность: 1 ч. 24 м.
Общий поток: 2552 Кбит/сек
Дата кодирования: UTC 2010-03-09 01:16:50
Программа кодирования: mkvmerge v2.7.0 ('Do It Again') built on Apr 15 2009 00:27:10
Библиотека кодирования: libebml v0.7.7 + libmatroska v0.8.1
Видео
Идентификатор: 1
Формат: AVC
Формат/Информация: Advanced Video Codec
Профиль формата: High@L3.1
Параметр CABAC формата: Да
Параметр ReFrames формата: 2 кадра
Идентификатор кодека: V_MPEG4/ISO/AVC
Продолжительность: 1 ч. 24 м.
Битрейт: 2175 Кбит/сек
Ширина: 720 пикс.
Высота: 304 пикс.
Соотношение сторон: 2,35:1
Частота кадров: 25,000 кадр/сек
Цветовое пространство: YUV
Подвыборка цветности: 4:2:0
Битовая глубина: 8 бит
Тип развёртки: Прогрессивная
Бит/(Пиксели*Кадры): 0.397
Размер потока: 1,24 Гбайт (83%)
Библиотека кодирования: x264 core 1679598476Dec5 2009
Настройки программы: cabac=1 / ref=1 / deblock=0:0:0 / analyse=0x3:0x113 / me=hex / subme=5 / psy=1 / psy_rd=0.0:0.0 / mixed_ref=0 / me_range=16 / chroma_me=1 / trellis=0 / 8x8dct=1 / cqm=0 / deadzone=21,11 / chroma_qp_offset=0 / threads=1 / nr=0 / decimate=1 / mbaff=0 / bframes=3 / b_pyramid=0 / b_adapt=1 / b_bias=0 / direct=1 / wpredb=1 / keyint=250 / keyint_min=1 / scenecut=40 / rc_lookahead=40 / rc=abr / mbtree=1 / bitrate=2175 / ratetol=1.0 / qcomp=0.50 / qpmin=2 / qpmax=31 / qpstep=4 / ip_ratio=1.40 / aq=1:0.30
Язык: Russian
Аудио
Идентификатор: 2
Формат: AC-3
Формат/Информация: Audio Coding 3
Расширение режима: CM (complete main)
Идентификатор кодека: A_AC3
Продолжительность: 1 ч. 24 м.
Вид битрейта: Постоянный
Битрейт: 384 Кбит/сек
Каналы: 6 каналов
Расположение каналов: Front: L C R, Side: L R, LFE
Частота: 48,0 КГц
Битовая глубина: 16 бит
Метод сжатия: С потерями
Размер потока: 231 Мбайт (15%)
Язык: Russian
Для гонконгского актера Чоу Юнь-Фата этот фильм стал его первой работой в американском кино.
Эта лента также стала режиссерским дебютом в большом кинематографе известного клипмейкера Антуана Фукуа.
Картина установила рекорд для американских лент по количеству выстрелов.





реклама партнёра


Вернуться к началу
 Профиль Отправить личное сообщение  
 
   Похожие торренты   Автор   Торрент   Размер 
В этой теме нет новых непрочитанных сообщений. Убийцы на замену / The Replacement Killers [боевик, триллер, драма, криминал, 1998] BDRip, Dub+Sub

salma3

20 | 5

1.46 ГБ

В этой теме нет новых непрочитанных сообщений. Убийцы / Killers [Боевик, триллер, драма, криминал, 2014] BDRip 720p, Dvo+Sub

salma3

100 | 6

6.04 ГБ

В этой теме нет новых непрочитанных сообщений. Мирные убийцы / Нарушители покоя / The Peace Killers [боевик, драма, криминал, 1971] SATRip, Dvo

salma3

12 | 5

1.27 ГБ

В этой теме нет новых непрочитанных сообщений. Письма убийцы / Letters from a Killer [Триллер, драма, криминал, детектив, 1998] DVDRip, Mvo

salma3

500 | 482

1.51 ГБ

В этой теме нет новых непрочитанных сообщений. Убийцы / The Killers [драма, криминал, детектив, 1964] BDRip 720p, Dvo+Sub

salma3

25 | 2

7.65 ГБ

В этой теме нет новых непрочитанных сообщений. Замена / Учитель на замену / The Substitute [боевик, триллер, драма, криминал, 1996] HDRip, Mvo

salma3

65 | 5

1.45 ГБ

В этой теме нет новых непрочитанных сообщений. Убийственная грань / Лезвия убийцы / The Killers Edge / Blood Money [Боевик, 1991] DVDRip, Avo

salma3

4 | 3

1.37 ГБ


Начать новую тему Ответить на тему  [ 1 сообщение ] 




Для Мосгорсуда, Роскомнадзора и рекламодателей:: mosgorsud-torrent[собачка]yandex.ru