Торрент файл
скачать торрент магнет ссылка Добавлен: 14 янв 2013, 15:18
Размер: 1.47 ГБ
Сидеров: 1
Личеров: 1
Статус: (Dracon)
Автор

СообщениеДобавлено: 14 янв 2013, 15:18 

Не в сети
Зам. Админа
Аватара пользователя
Дата регистрации:
02 дек 2010, 12:39
Спасибо: 12623 / 214
Сообщения: 28012
Страна: США
Жанр: драма
Год выпуска: 2011
Продолжительность: 02:29:52
Перевод: Одноголосый закадровый
Cубтитры: нет
Оригинальная аудиодорожка: нет
Режиссер: Кеннет Лонерган / Kenneth Lonergan
В ролях: Анна Пэкуин, Мэтт Дэймон, Дж. Смит-Камерон, Жан Рено, Дженни Берлин, Эллисон Дженни, Мэттью Бродерик, Марк Руффало, Сара Стил, Джон Галлахер мл. и др.
Описание: Семнадцатилетняя Лиза очень виновата. Она знает, что причастна к дорожно-транспортному происшествию, унесшему жизнь женщины. Делая попытки сознаться в своём проступке, она, к своему удивлению, всё время наталкивается на непонимание окружающих. Её семья, её друзья, её учителя — никто не поддерживает искренних попыток девушки. Так совершенно неожиданно Лиза узнаёт простую истину. Что рано или поздно идеалы молодости всегда сталкиваются с реальной жизнью и разбиваются на компромиссы мира взрослых людей.


Релиз:
Озвучка: Kenum (Владислав Данилов)
Перевод: группы в контакте "Настоящая Кровь"
Видео подготовил, сведение звука: viruse (Виталий Емельянов)
смотреть ТРЕЙЛЕР на русском языке на youtube
семпл
Качество видео: HDRip
Формат видео: AVI
Видео: 720x384 (1.88:1), 23.976 fps, XviD build 50 ~1006 kbps avg, 0.15 bit/pixel
Аудио: 48 kHz, AC3 Dolby Digital, 3/2 (L,C,R,l,r) + LFE ch, ~384 kbps
MediaInfo
D:\ОЗВУЧКА\ГОТОВОЕ\ФИЛЬМЫ\МАРГАРЕТ\Margaret.2011.ViruseProject.avi
General
Complete name : D:\ОЗВУЧКА\ГОТОВОЕ\ФИЛЬМЫ\МАРГАРЕТ\Margaret.2011.ViruseProject.avi
Format : AVI
Format/Info : Audio Video Interleave
File size : 1.47 GiB
Duration : 2h 29mn
Overall bit rate : 1 400 Kbps
Writing application : VirtualDubMod 1.5.10.2 (build 2540/release)
Writing library : VirtualDubMod build 2540/release
Video #0
ID : 0
Format : MPEG-4 Visual
Format profile : Advanced Simple@L5
Format settings, BVOP : 1
Format settings, QPel : No
Format settings, GMC : No warppoints
Format settings, Matrix : Default (MPEG)
Codec ID : XVID
Codec ID/Hint : XviD
Duration : 2h 29mn
Bit rate : 1 007 Kbps
Width : 720 pixels
Height : 384 pixels
Display aspect ratio : 1.85:1
Frame rate : 23.976 fps
Color space : YUV
Chroma subsampling : 4:2:0
Bit depth : 8 bits
Scan type : Progressive
Compression mode : Lossy
Bits/(Pixel*Frame) : 0.152
Stream size : 1.05 GiB (72%)
Writing library : XviD 1.2.1 (UTC 2008-12-04)
Audio #1
ID : 1
Format : AC-3
Format/Info : Audio Coding 3
Mode extension : CM (complete main)
Format settings, Endianness : Big
Codec ID : 2000
Duration : 2h 29mn
Bit rate mode : Constant
Bit rate : 384 Kbps
Channel(s) : 6 channels
Channel positions : Front: L C R, Side: L R, LFE
Sampling rate : 48.0 KHz
Bit depth : 16 bits
Compression mode : Lossy
Stream size : 412 MiB (27%)
Alignment : Split accross interleaves
Interleave, duration : 42 ms (1.00 video frame)
Interleave, preload duration : 500 ms




реклама партнёра


Вернуться к началу
 Профиль  
 
   Похожие торренты   Автор   Торрент   Размер 
В этой теме нет новых непрочитанных сообщений. Маргарет / Margaret [Драма, 2011] HDRip, Mvo

salma3

49 | 10

1.46 ГБ

В этой теме нет новых непрочитанных сообщений. Маргарет / Margaret [Драма, 2011] BDRip 720p, Mvo+Dub+Avo+Sub

salma3

37 | 13

9.01 ГБ

В этой теме нет новых непрочитанных сообщений. Маргарет / Margaret [Драма, 2011] BDRip 1080p, Mvo+Dub+Avo+Sub

salma3

30 | 21

15 ГБ

В этой теме нет новых непрочитанных сообщений. Сокамерники / Cellmates [Комедия, драма, 2011] HDRip, Dvo [НТВ+]

salma3

81 | 2

745.58 МБ

В этой теме нет новых непрочитанных сообщений. Рамараджья / Sri Rama Rajyam [Драма, 2011] HDRip, Avo

salma3

74 | 1

1.46 ГБ

В этой теме нет новых непрочитанных сообщений. Рыжий пес / Red Dog [драма, комедия, семейный, 2011] HDRip-AVC, Mvo

salma3

15 | 3

738.37 МБ

В этой теме нет новых непрочитанных сообщений. Под прикрытием / Pod prikritie [s01] [боевик, драма, криминал, 2011] HDRip, Mvo

salma3

95 | 68

8.2 ГБ


Начать новую тему Ответить на тему  [ 1 сообщение ] 




Для Мосгорсуда, Роскомнадзора и рекламодателей:: mosgorsud-torrent[собачка]yandex.ru