Торрент файл
скачать торрент магнет ссылка Добавлен: 12 янв 2013, 17:46
Размер: 745.28 МБ
Сидеров: 3
Личеров: 4
Статус: (salma3)
Автор

СообщениеДобавлено: 12 янв 2013, 17:46 

Не в сети
Супермодератор
Аватара пользователя
Дата регистрации:
15 фев 2012, 16:44
Возраст: 27
Спасибо: 5135 / 2089
Сообщения: 17406

Кулак легенды / Fist of Legend / Jing wu ying xiong

Год выхода: 1994
Жанр: боевик, драма
Режиссер: Гордон Чан / Gordon Chan
В ролях: Джет Ли, Шинобу Накаяма, Сиу-ху Чин, Билли Чоу, Ясуаки Курата, Пол Чун, Ада Чои, Чеунг-Ян Юэнь, Кэрол Там

О фильме:
В начале XX века во время японской оккупации Китая самураи, кичившиеся своим непобедимым каратэ, жестоко убили миролюбивого учителя кунг-фу Хо. Деморализованный народ даже не помышлял о сопротивлении. Устрашились все, кроме Жень Чена, самого одаренного ученика погибшего мастера.
Узнав о случившемся, герой клянется во что бы то ни стало отомстить убийцам. И когда приходит час возмездия, стонущий под пятой захватчиков Шанхай превращается в поле грандиозной битвы между дерзким одиночкой и сонмом опаснейших врагов.



Страна: Гонконг
Продолжительность: 01:43:16
Перевод: Профессиональный (многоголосый закадровый)

Файл
Кодек: XviD
Качество: HDRip [BDRip 1080p]
Видео: 656x368 (16:9), 23.976 fps, 872 Kbps, 0.151 Bits/(Pixel*Frame)
Звук: MP3, 48 KHz, 128 Kbps, 2 channels

Семпл

General
Complete name: D:Kulak.legendy.1994.HDRip.XviD.745mb.avi
Format: AVI
Format/Info: Audio Video Interleave
File size: 745 MiB
Duration: 1h 43mn
Overall bit rate: 1 009 Kbps
Writing application: VirtualDubMod 1.5.10.2 (build 2540/release)
Writing library: VirtualDubMod build 2540/release

Video
ID: 0
Format: MPEG-4 Visual
Format profile: Advanced Simple@L5
Format settings, BVOP: 1
Format settings, QPel: No
Format settings, GMC: No warppoints
Format settings, Matrix: Custom
Codec ID: XVID
Codec ID/Hint: XviD
Duration: 1h 43mn
Bit rate: 872 Kbps
Width: 656 pixels
Height: 368 pixels
Display aspect ratio: 16:9
Frame rate: 23.976 fps
Color space: YUV
Chroma subsampling: 4:2:0
Bit depth: 8 bits
Scan type: Progressive
Compression mode: Lossy
Bits/(Pixel*Frame): 0.151
Stream size: 644 MiB (86%)
Writing library: XviD 1.2.1 (UTC 2008-12-04)

Audio
ID: 1
Format: MPEG Audio
Format version: Version 1
Format profile: Layer 3
Codec ID: 55
Codec ID/Hint: MP3
Duration: 1h 43mn
Bit rate mode: Constant
Bit rate: 128 Kbps
Channel(s): 2 channels
Sampling rate: 48.0 KHz
Compression mode: Lossy
Stream size: 94.5 MiB (13%)
Alignment: Aligned on interleaves
Interleave, duration: 42 ms (1.00 video frame)
Interleave, preload duration: 504 ms
Writing library: LAME3.98r
Encoding settings: -m s -V 4 -q 2 -lowpass 17 -b 128









реклама партнёра


Вернуться к началу
 Профиль Отправить личное сообщение  
 
   Похожие торренты   Автор   Торрент   Размер 
В этой теме нет новых непрочитанных сообщений. Когда гаснет свет / Te Zhong Jiu Yuan Ying Xiong [боевик, драма, 2014] HDRip, Avo

Dracon

712 | 37

1.37 ГБ

В этой теме нет новых непрочитанных сообщений. Кулак ярости / Jing wu men [боевик, триллер, драма, 1972] HDRip, Avo

salma3

29 | 5

1.46 ГБ

В этой теме нет новых непрочитанных сообщений. Новый кулак ярости / New Fist Of Fury [боевик, драма, 1976] HDRip, Mvo

salma3

90 | 8

1.37 ГБ

В этой теме нет новых непрочитанных сообщений. Чёрный и белый 2: Рассвет справедливости / Pi Zi Ying Xiong 2 (Юэ-Сун Цай) [боевик, 2015] HDRip, avo

Dracon

6 | 2

1.37 ГБ

В этой теме нет новых непрочитанных сообщений. Герои не плачут / Ying xiong wu lei [боевик, драма, военный, 1986] DVDRip, Avo

salma3

74 | 62

1.37 ГБ

В этой теме нет новых непрочитанных сообщений. Когда гаснет свет / Te Zhong Jiu Yuan Ying Xiong [боевик, драма, 2014] BDRip 720p, Avo

Dracon

27 | 3

8.87 ГБ

В этой теме нет новых непрочитанных сообщений. Кулак чести / Fist of Honor [Боевик, драма, 1993] DVDRip, Avo

salma3

45 | 17

1.46 ГБ


Начать новую тему Ответить на тему  [ 1 сообщение ] 




Для Мосгорсуда, Роскомнадзора и рекламодателей:: mosgorsud-torrent[собачка]yandex.ru