Торрент файл
скачать торрент магнет ссылка Добавлен: 12 янв 2013, 09:22
Размер: 1.36 ГБ
Сидеров: 4
Личеров: 2
Статус: (Dracon)
Автор

СообщениеДобавлено: 12 янв 2013, 09:22 

Не в сети
Зам. Админа
Аватара пользователя
Дата регистрации:
02 дек 2010, 12:39
Спасибо: 12623 / 214
Сообщения: 28012

Год выпуска: 2011
Жанр:Драма
Выпущено: Великобритания / Warp X, Inflammable Films, Film4
Режиссер: Пэдди Консидайн
В ролях: Питер Муллан, Оливия Колман, Эдди Марсан, Пол Попплуэлл, Нед Деннехи, Сэмюэл Боттомли

Описание: Немолодой уже Джозеф встречает свою ровесницу Ханну, и они явно симпатизируют друг другу. Чем не начало для тихой лирической истории, если не знать Джозефа — завсегдатая пабов, после посещения, которых он превращается в неукротимого доисторического ящера, в угрозу для всего микрорайона. У тихой же и наполненной светом Ханны есть своя тайна, свой «скелет в шкафу».



Продолжительность: 01:32:20
Перевод: Профессиональный (многоголосый закадровый) Лицензия



Качество: HDRip
Формат: AVI
Видео: XviD, 1718 kb/s, 720x304
Аудио Rus: AC3, 2 ch, 224 Кбит/с
Аудио Eng: MP3, 2 ch, 160 Кбит/с

Внимание: Оригинальная дорога присутствует, но с рассинхроном.
С русской дорогой все в порядке.


Формат: AVI
Формат/Информация: Audio Video Interleave
Размер файла: 1,36 Гбайт
Продолжительность: 1 ч. 32 м.
Общий поток: 2111 Кбит/сек
Программа кодирования: VirtualDubMod 1.5.10.2 (build 2540/release)
Библиотека кодирования: VirtualDubMod build 2540/release

Видео
Идентификатор: 0
Формат: MPEG-4 Visual
Профиль формата: Advanced Simple@L5
Параметр BVOP формата: 2
Параметр QPel формата: Нет
Параметр GMC формата: Без точки перехода
Параметр матрицы формата: Default (MPEG)
Идентификатор кодека: XVID
Идентификатор кодека/Подсказка: XviD
Продолжительность: 1 ч. 32 м.
Битрейт: 1718 Кбит/сек
Ширина: 720 пикс.
Высота: 304 пикс.
Соотношение сторон: 2,35:1
Частота кадров: 23,976 кадр/сек
Цветовое пространство: YUV
Подвыборка цветности: 4:2:0
Битовая глубина: 8 бит
Тип развёртки: Прогрессивная
Метод сжатия: С потерями
Бит/(Пиксели*Кадры): 0.327
Размер потока: 1,11 Гбайт (81%)
Библиотека кодирования: XviD 1.2.1 (UTC 2008-12-04)

Аудио #1
Идентификатор: 1
Формат: AC-3
Формат/Информация: Audio Coding 3
Расширение режима: CM (complete main)
Идентификатор кодека: 2000
Продолжительность: 1 ч. 32 м.
Вид битрейта: Постоянный
Битрейт: 224 Кбит/сек
Каналы: 2 канала
Расположение каналов: Front: L R
Частота: 48,0 КГц
Битовая глубина: 16 бит
Метод сжатия: С потерями
Размер потока: 148 Мбайт (11%)
Выравнивание: Разделение по промежуткам
Продолжительность промежутка: 42мс. (1,00 видеокадр)
Время предзагрузки промежутка: 500 ms

Аудио #2
Идентификатор: 2
Формат: MPEG Audio
Версия формата: Version 1
Профиль формата: Layer 3
Идентификатор кодека: 55
Идентификатор кодека/Подсказка: MP3
Продолжительность: 1 ч. 32 м.
Вид битрейта: Переменный
Битрейт: 160 Кбит/сек
Каналы: 2 канала
Частота: 48,0 КГц
Метод сжатия: С потерями
Размер потока: 102 Мбайт (7%)
Выравнивание: Разделение по промежуткам
Продолжительность промежутка: 42мс. (1,00 видеокадр)
Время предзагрузки промежутка: 500 ms
Библиотека кодирования: LAME3.99r
Настройки программы: -m s -V 4 -q 2 -lowpass 17.5 --abr 160





реклама партнёра


Вернуться к началу
 Профиль  
 
   Похожие торренты   Автор   Торрент   Размер 
В этой теме нет новых непрочитанных сообщений. Всё, что у нас было / All We Had [драма, 2016] HDRip, Mvo [Лицензия]

salma3

432 | 84

1.37 ГБ

В этой теме нет новых непрочитанных сообщений. «Старый» Новый год / New Year's Eve [комедия, мелодрама, 2011] HDRip, Dub [Лицензия]

salma3

163 | 6

1.37 ГБ

В этой теме нет новых непрочитанных сообщений. 28 панфиловцев [Военный, драма, 2016] HDRip [Лицензия]

salma3

5708 | 1116

1.47 ГБ

В этой теме нет новых непрочитанных сообщений. 28 панфиловцев [Военный, драма, 2016] HDRip [Лицензия]

salma3

1679 | 319

2.05 ГБ

В этой теме нет новых непрочитанных сообщений. Коммуна / Kollektivet [драма, 2016] HDRip, Dub [Лицензия]

salma3

43 | 15

1.46 ГБ

В этой теме нет новых непрочитанных сообщений. Военные игры / War Games: At the End of the Day [триллер, ужасы, боевик, 2011] HDRip, Mvo [Лицензия]

salma3

29 | 12

1.46 ГБ

В этой теме нет новых непрочитанных сообщений. Выбор / The Choice [драма, мелодрама, 2016] HDRip, Dub [Лицензия]

salma3

70 | 18

2.18 ГБ


Начать новую тему Ответить на тему  [ 1 сообщение ] 




Для Мосгорсуда, Роскомнадзора и рекламодателей:: mosgorsud-torrent[собачка]yandex.ru