Торрент файл
скачать торрент магнет ссылка Добавлен: 11 янв 2013, 15:17
Размер: 1.2 ГБ
Сидеров: 4
Личеров: 1
Статус: (drink)
Автор

СообщениеДобавлено: 11 янв 2013, 15:17 

Не в сети
Зам. Админа
Аватара пользователя
Дата регистрации:
02 дек 2010, 12:39
Спасибо: 12623 / 214
Сообщения: 28012

Год выпуска: 2012
Страна: Великобритания
Жанр:Драма
Продолжительность: ~ 01:30:00
Перевод: Профессиональный (многоголосый, закадровый) - Baibako
Субтитры: Нет
Режиссер: Айслинг Уолш

В ролях: Альфред Молина, Франческа Аннис, Рори Киннер, Мэйми МакКой, Фиби Николлс, Сара Вудворд, Ив Мэтисон

Описание: Невыдуманная история о величайшем обмане в классической музыке и вечной любви. После многих лет разочарований и разбитых надежд пианистка Джойс Хатто только в 70-летнем возрасте вдруг получила международную известность. Критики были в восторге от записей, сделанных старой тяжело больной женщиной. И назвали ее «величайшей ныне живущей пианисткой, которую прежде никто не слышал». Не прошло и года после смерти Хатто, как блестящая репутация исполнительницы была не просто запятнана. Она была полностью уничтожена...



Перевод: Юлия Луцкая
Озвучка: Юлия Котурбаш, Елена Григорьева, Алексей Кузнецов и Виталий Ткаченко

Качество: HDTVRip
Формат: AVI
Видео кодек: XviD
Аудио кодек: MP3
Видео: AVC, 1500 Кбит/сек 720x400, 25 000 кадров/сек
Аудио rus: 48,0 КГц, 2 канала, 192 Кбит/сек
Аудио eng: 48,0 КГц, 2 канала, 192 Кбит/сек

Формат: AVI
Формат/Информация: Audio Video Interleave
Размер файла: 1,20 Гбайт
Продолжительность: 1 ч. 30 м.
Общий поток: 1892 Кбит/сек

Видео
Идентификатор: 0
Формат: MPEG-4 Visual
Профиль формата: Advanced Simple@L5
Параметр BVOP формата: 2
Параметр QPel формата: Нет
Параметр GMC формата: Без точки перехода
Параметр матрицы формата: Default (H.263)
Идентификатор кодека: XVID
Идентификатор кодека/Подсказка: XviD
Продолжительность: 1 ч. 30 м.
Битрейт: 1501 Кбит/сек
Ширина: 720 пикс.
Высота: 400 пикс.
Соотношение сторон: 16:9
Частота кадров: 25,000 кадр/сек
Цветовое пространство: YUV
Подвыборка цветности: 4:2:0
Битовая глубина: 8 бит
Тип развёртки: Прогрессивная
Метод сжатия: С потерями
Бит/(Пиксели*Кадры): 0.208
Размер потока: 973 Мбайт (79%)
Библиотека кодирования: XviD 1.2.1 (UTC 2008-12-04)

Аудио #1
Идентификатор: 1
Формат: MPEG Audio
Версия формата: Version 1
Профиль формата: Layer 3
Режим: Joint stereo
Расширение режима: MS Stereo
Идентификатор кодека: 55
Идентификатор кодека/Подсказка: MP3
Продолжительность: 1 ч. 30 м.
Вид битрейта: Постоянный
Битрейт: 192 Кбит/сек
Каналы: 2 канала
Частота: 48,0 КГц
Метод сжатия: С потерями
Размер потока: 124 Мбайт (10%)
Выравнивание: Соединение по промежуткам
Продолжительность промежутка: 160мс. (4,00 видеокадра)
Время предзагрузки промежутка: 216 ms
Заголовок: Loving.Miss.Hatto.HDTVRip.x264.Rus.Eng.BaibaKo.tv.mp4_track_1_russian_audio
Библиотека кодирования: LAME3.99r
Настройки программы: -m j -V 4 -q 2 -lowpass 18.6 -b 192

Аудио #2
Идентификатор: 2
Формат: MPEG Audio
Версия формата: Version 1
Профиль формата: Layer 3
Режим: Joint stereo
Расширение режима: MS Stereo
Идентификатор кодека: 55
Идентификатор кодека/Подсказка: MP3
Продолжительность: 1 ч. 30 м.
Вид битрейта: Постоянный
Битрейт: 192 Кбит/сек
Каналы: 2 канала
Частота: 48,0 КГц
Метод сжатия: С потерями
Размер потока: 124 Мбайт (10%)
Выравнивание: Соединение по промежуткам
Продолжительность промежутка: 160мс. (4,00 видеокадра)
Время предзагрузки промежутка: 216 ms
Заголовок: Loving.Miss.Hatto.HDTVRip.x264.Rus.Eng.BaibaKo.tv.mp4_track_2_english_audio
Библиотека кодирования: LAME3.99r
Настройки программы: -m j -V 4 -q 2 -lowpass 18.6 -b 192

Релиз от:




реклама партнёра


Вернуться к началу
 Профиль  
 
   Похожие торренты   Автор   Торрент   Размер 
В этой теме нет новых непрочитанных сообщений. Дом странных детей Мисс Перегрин / Miss Peregrine's Home for Peculiar Children [фэнтези, драма, приключения, семейный, 2016] HDTVRip-AVC, Dub [чистый звук]

salma3

5765 | 1431

2.67 ГБ

В этой теме нет новых непрочитанных сообщений. Леди-детектив мисс Фрайни Фишер / Miss Fisher's Murder Mysteries [S01-02] [драма, криминал, детектив, 2012-2013] DVDRip, HDRip, Mvo

salma3

151 | 102

15.92 ГБ

В этой теме нет новых непрочитанных сообщений. Мисс Слоун / Miss Sloane [триллер, драма, 2016] HDRip, Mvo

salma3

96 | 31

2.05 ГБ

В этой теме нет новых непрочитанных сообщений. Мисс Слоун / Miss Sloane [триллер, драма, 2016] WEBRip, Mvo

salma3

1127 | 205

1.37 ГБ

В этой теме нет новых непрочитанных сообщений. Мисс Медоуз / Miss Meadows (Карен Ли Хопкинс) [драма, 2014] WEB-DLRip, Mvo [НТВ+]

Dracon

1 | 3

744 МБ

В этой теме нет новых непрочитанных сообщений. Мисс Поттер / Miss Potter [драма, биография, 2006] BDRip 720p, Dub+Sub

salma3

21 | 2

3.18 ГБ

В этой теме нет новых непрочитанных сообщений. Мисс Медоуз / Miss Meadows (Карен Ли Хопкинс) [драма, 2014] WEB-DLRip, Mvo [НТВ+]

Dracon

7 | 5

1.37 ГБ


Начать новую тему Ответить на тему  [ 1 сообщение ] 




Для Мосгорсуда, Роскомнадзора и рекламодателей:: mosgorsud-torrent[собачка]yandex.ru