Торрент файл
скачать торрент магнет ссылка Добавлен: 11 янв 2013, 00:45
Размер: 1.46 ГБ
Сидеров: 1
Личеров: 1
Статус: (salma3)
Автор

СообщениеДобавлено: 11 янв 2013, 00:45 

Не в сети
Супермодератор
Аватара пользователя
Дата регистрации:
15 фев 2012, 16:44
Возраст: 27
Спасибо: 5134 / 2089
Сообщения: 17379

Хамилтон 2: только если это не касается вашей дочери / Hamilton 2: Unless It's About Your Daughter

Год выхода: 2012
Жанр:боевик, триллер, драма
Режиссер: Тобиаш Фальк
В ролях: Микаэл Персбрандт, Стивен Вэддингтон, Джон Лайт, Frida Hallgren, Дэвид Ринтул, Кэл Макэнинк, Питер Эггерс, Милинд Соман, Найджел Уитми, Саба Мубарак

Описание: У знакомой Хамилтона похищают дочь, после того как она выступила перед журналистами с критикой одной мусульманской группировки. Но это не простое похищение, оно несёт как политический, так и личный характер. С помощью отца девочки Хамильтон решает отправится на поиски пропавшей девочки и брутально отомстить похитителям…



Выпущено: Швеция
Продолжительность: 01:29:47
Перевод: Любительский (одноголосый закадровый) - [den904], перевод [Skyworker]
Субтитры: Русские, английские



Качество: HDRip
Формат: AVI
Видео: XviD, 1862 Кбит/с, 720x304
Аудио Rus: AC3, 6 ch, 448 Кбит/с

Формат: AVI
Формат/Информация: Audio Video Interleave
Размер файла: 1,46 Гбайт
Продолжительность: 1 ч. 29 м.
Общий поток: 2320 Кбит/сек
Название фильма: Hamilton 2 (2012)
Режиссёр: ed_rez
Программа кодирования: VirtualDubMod 1.5.10.3 (build 2550/release)
Библиотека кодирования: VirtualDubMod build 2550/release

Видео
Идентификатор: 0
Формат: MPEG-4 Visual
Профиль формата: Advanced Simple@L5
Параметр BVOP формата: 2
Параметр QPel формата: Нет
Параметр GMC формата: Без точки перехода
Параметр матрицы формата: Выборочная
Режим смешивания: Сжатый битовый поток
Идентификатор кодека: XVID
Идентификатор кодека/Подсказка: XviD
Продолжительность: 1 ч. 29 м.
Битрейт: 1863 Кбит/сек
Ширина: 720 пикс.
Высота: 304 пикс.
Соотношение сторон: 2,35:1
Частота кадров: 24,000 кадр/сек
Цветовое пространство: YUV
Подвыборка цветности: 4:2:0
Битовая глубина: 8 бит
Тип развёртки: Прогрессивная
Метод сжатия: С потерями
Бит/(Пиксели*Кадры): 0.355
Размер потока: 1,17 Гбайт (80%)
Библиотека кодирования: XviD 65

Аудио
Идентификатор: 1
Формат: AC-3
Формат/Информация: Audio Coding 3
Расширение режима: CM (complete main)
Идентификатор кодека: 2000
Продолжительность: 1 ч. 29 м.
Вид битрейта: Постоянный
Битрейт: 448 Кбит/сек
Каналы: 6 каналов
Расположение каналов: Front: L C R, Side: L R, LFE
Частота: 48,0 КГц
Битовая глубина: 16 бит
Метод сжатия: С потерями
Размер потока: 288 Мбайт (19%)
Выравнивание: Разделение по промежуткам
Продолжительность промежутка: 42мс. (1,00 видеокадр)
Время предзагрузки промежутка: 500 ms





Релиз от:




реклама партнёра


Вернуться к началу
 Профиль Отправить личное сообщение  
 
   Похожие торренты   Автор   Торрент   Размер 
В этой теме нет новых непрочитанных сообщений. Только не без моей дочери / Not Without My Daughter [триллер, драма, 1991] HDTV 1080i, Dvo

salma3

20 | 2

6.02 ГБ

В этой теме нет новых непрочитанных сообщений. Я Трахнул Лучшую Подругу Моей Дочери! #8 / OMG I Fucked My Daughter's BFF #8 (2014) DVDRip

amadei

20 | 34

951.86 МБ

В этой теме нет новых непрочитанных сообщений. Daddy Daughter Dynamic / Динамика Отца и Дочери (Taboo Heat) [2015., WEBRip]

max77777

4 | 0

1.15 ГБ

В этой теме нет новых непрочитанных сообщений. A Mother Daughter Thing 2 / Сущность Матери и Дочери 2 (Jacky St. James / Digital Sin) (Karla Kush, Cherie DeVille, Aidra Fox, Nikki Daniels, Jenna J. Ross...) [2014 г., Family Roleplay, Feature, Mature, MILF, Old & Young Females, WEB-DL 72

friizze

17 | 22

3.39 ГБ

В этой теме нет новых непрочитанных сообщений. Отцы и дочери / Fathers and Daughters [Драма, 2015] HDRip, dvo

Dracon

381 | 10

1.37 ГБ

В этой теме нет новых непрочитанных сообщений. Дочь / Daughter (Ку Хе Сон / Ku Hye-sun) [2014г., Южная Корея, драма, HDRip-AVC] DVO

Alfredovich

4 | 0

1.84 ГБ

В этой теме нет новых непрочитанных сообщений. Донато и дочь / Donato and Daughter [боевик, драма, криминал, 1993] DVDRip, Avo

salma3

9 | 2

1.35 ГБ


Начать новую тему Ответить на тему  [ 1 сообщение ] 




Для Мосгорсуда, Роскомнадзора и рекламодателей:: mosgorsud-torrent[собачка]yandex.ru