Торрент файл
скачать торрент магнет ссылка Добавлен: 10 янв 2013, 18:22
Размер: 1.46 ГБ
Сидеров: 16
Личеров: 3
Статус: (salma3)
Автор

СообщениеДобавлено: 10 янв 2013, 18:22 

Не в сети
Супермодератор
Аватара пользователя
Дата регистрации:
15 фев 2012, 16:44
Возраст: 27
Спасибо: 5143 / 2090
Сообщения: 17514

Страх воды / La peur de l'eau

Год выпуска: 2011
Страна: Канада
Жанр:Триллер, детектив
Продолжительность:~ 02:02:00
Перевод: Любительский (двухголосый, закадровый) - ViruseProject
Субтитры: Отсутствуют
Режиссер: Габриель Пеллетье / Gabriel Pelletier
В ролях: Пьер-Франсуа Лежандр, Бриджитт Погонат, Паскаль Бюссьер, Норманд Д’Амур, Мишель Лаперьер, Стефани Лапойнт, Бенуа Россо и др.

Описание: Сержант Андре Сурпрена ведёт обычную жизнь на Мадленских островах с дочерью подростком. Всё меняется, когда была найдена убитой и изнасилованной Розали Ришар, дочь мэра. Инспектор Жингра прибыл из Монреаля для расследования этого убийства. Видя, что столичная полиция сосредоточена на неоднозначных фактах, Сурпрена решает провести собственное расследование вместе со своей новенькой напарницей офицером Савуа. Все местные жители оказываются под подозрением.





Качество: DVDRip
Формат: AVI
Видео кодек: XviD
Аудио кодек: AC3
Видео: 704x304 (2.32:1), 23.976 fps, ~1259 kbps, 0.25 bit/pixel
Аудио rus: AC3 Dolby Digital, 3/2 (L,C,R,l,r) + LFE ch, 448 kbps
Перевод: sonnyb
Озвучка: IgVin (Игорь Головин), Lalusha (Алла Блаер)
Работа со звуком: viruse (Виталий Емельянов)

Формат: AVI
Формат/Информация: Audio Video Interleave
Размер файла: 1,46 Гбайт
Продолжительность: 2 ч. 2 м.
Общий поток: 1717 Кбит/сек
Программа кодирования: VirtualDubMod 1.5.10.2 (build 2540/release)
Библиотека кодирования: VirtualDubMod build 2540/release

Видео
Идентификатор: 0
Формат: MPEG-4 Visual
Профиль формата: Advanced Simple@L5
Параметр BVOP формата: 1
Параметр QPel формата: Нет
Параметр GMC формата: Без точки перехода
Параметр матрицы формата: Default (MPEG)
Идентификатор кодека: XVID
Идентификатор кодека/Подсказка: XviD
Продолжительность: 2 ч. 2 м.
Битрейт: 1259 Кбит/сек
Ширина: 704 пикс.
Высота: 304 пикс.
Соотношение сторон: 2,35:1
Частота кадров: 23,976 кадр/сек
Цветовое пространство: YUV
Подвыборка цветности: 4:2:0
Битовая глубина: 8 бит
Тип развёртки: Прогрессивная
Метод сжатия: С потерями
Бит/(Пиксели*Кадры): 0.245
Размер потока: 1,07 Гбайт (73%)
Библиотека кодирования: XviD 1.2.1 (UTC 2008-12-04)

Аудио
Идентификатор: 1
Формат: AC-3
Формат/Информация: Audio Coding 3
Расширение режима: CM (complete main)
Идентификатор кодека: 2000
Продолжительность: 2 ч. 2 м.
Вид битрейта: Постоянный
Битрейт: 448 Кбит/сек
Каналы: 6 каналов
Расположение каналов: Front: L C R, Side: L R, LFE
Частота: 48,0 КГц
Битовая глубина: 16 бит
Метод сжатия: С потерями
Размер потока: 391 Мбайт (26%)
Выравнивание: Разделение по промежуткам
Продолжительность промежутка: 42мс. (1,00 видеокадр)
Время предзагрузки промежутка: 500 ms





Релиз от:




реклама партнёра


Вернуться к началу
 Профиль Отправить личное сообщение  
 
   Похожие торренты   Автор   Торрент   Размер 
В этой теме нет новых непрочитанных сообщений. Страх над городом / Peur sur la ville [триллер, детектив, 1975] BDRemux 1080p, mvo+Sub

salma3

14 | 2

20.55 ГБ

В этой теме нет новых непрочитанных сообщений. Страх над городом / Peur sur la ville [драма, триллер, боевик, 1975] DVDRip, Mvo

salma3

60 | 5

2.19 ГБ

В этой теме нет новых непрочитанных сообщений. Страх глубины / In the Deep [Триллер, 2016] DVDRip, Mvo

salma3

1280 | 218

1.37 ГБ

В этой теме нет новых непрочитанных сообщений. Страх как он есть / Ring Around the Rosie [ужасы, триллер, 2006] DVDRip, Mvo

salma3

32 | 2

698.17 МБ

В этой теме нет новых непрочитанных сообщений. Турбулентность 2: Страх полетов / Turbulence 2: Fear of Flying [боевик, триллер, 1999] DVDRip, Mvo+Sub

salma3

26 | 2

1.46 ГБ

В этой теме нет новых непрочитанных сообщений. Как рыбка без воды / Like a fish out of water [Триллер, Комедия, Криминал, 1999] DVDRip, Mvo

salma3

26 | 2

1.46 ГБ

В этой теме нет новых непрочитанных сообщений. Корпорация «Страх» / Fear, Inc. [ужасы, триллер, комедия, 2016] WEB-DLRip, Avo

salma3

438 | 120

1.27 ГБ


Начать новую тему Ответить на тему  [ 1 сообщение ] 




Для Мосгорсуда, Роскомнадзора и рекламодателей:: mosgorsud-torrent[собачка]yandex.ru