Торрент файл
скачать торрент магнет ссылка Добавлен: 09 янв 2013, 23:37
Размер: 1.49 ГБ
Сидеров: 43
Личеров: 11
Статус: (salma3)
Автор

СообщениеДобавлено: 09 янв 2013, 23:37 

Не в сети
Супермодератор
Аватара пользователя
Дата регистрации:
15 фев 2012, 16:44
Возраст: 27
Спасибо: 5130 / 2089
Сообщения: 17372

Американский ниндзя 3: Кровавая охота / American Ninja 3: Blood Hunt

Год выхода: 1989
Жанр: боевик, драма
Режиссер:
В ролях: Дэвид Брэдли (II), Стив Джеймс, Марджо Гортнер, Мишель Чан, Иегуда Эфрони, Кэлвин Джанг, Эдриэнн Пирс, Ивэн Дж. Клиссер, Грант Престон, Майк Хафф

О фильме:
Шон Дэвидсон, потерявший родителей и воспитанный учителем-японцем в традициях ниндзя, приезжает на международный турнир каратэ. Злоумышленники разрабатывают здесь в секретной лаборатории смертоносный вирус, чтобы испытать его на победителе чемпионата. Но американский ниндзя и двое его друзей сокрушают лабораторию, спасая мир.



Страна: США, Канада, ЮАР
Продолжительность: 01:29:57
Перевод: Авторский (одноголосый) Вартан Дохалов,+ Юрий Немахов

Файл
Кодек: XviD
Качество: DVDRip
Видео: 640x480 (4:3), 22.976 fps, XviD MPEG-4 ~1975 kbps avg, 0.268 bit/pixel
Аудио: 1 Русский: 48 kHz, АС3, 2 ch, Front: L R ~192.00 kbps avg
Аудио: 2 Русский: 48 kHz, АС3, 2 ch, Front: L R ~192.00 kbps avg
Аудио: 3 Английский 48 kHz, АС3, 2 ch, Front: L R ~192.00 kbps avg

Общее
Полное имя: C:\Users\admin\Pictures\Downloads\amerikanskij_nindzja_3_krovavaja_ohota_[tfile.ru].avi
Формат: AVI
Формат/Информация: Audio Video Interleave
Размер файла: 1,49 Гбайт
Продолжительность: 1 ч. 29 м.
Общий поток: 2373 Кбит/сек
Программа кодирования: VirtualDubMod 1.5.10.2 (build 2540/release)
Библиотека кодирования: VirtualDubMod build 2540/release
Видео
Идентификатор: 0
Формат: MPEG-4 Visual
Профиль формата: Advanced Simple@L5
Параметр BVOP формата: 1
Параметр QPel формата: Нет
Параметр GMC формата: Без точки перехода
Параметр матрицы формата: Default (H.263)
Идентификатор кодека: XVID
Идентификатор кодека/Подсказка: XviD
Продолжительность: 1 ч. 29 м.
Битрейт: 1975 Кбит/сек
Ширина: 640 пикс.
Высота: 480 пикс.
Соотношение сторон: 4:3
Частота кадров: 23,976 кадр/сек
Цветовое пространство: YUV
Подвыборка цветности: 4:2:0
Битовая глубина: 8 бит
Тип развёртки: Прогрессивная
Метод сжатия: С потерями
Бит/(Пиксели*Кадры): 0.268
Размер потока: 1,24 Гбайт (83%)
Библиотека кодирования: XviD 1.2.1 (UTC 2008-12-04)
Аудио #1
Идентификатор: 1
Формат: AC-3
Формат/Информация: Audio Coding 3
Расширение режима: CM (complete main)
Идентификатор кодека: 2000
Продолжительность: 1 ч. 29 м.
Вид битрейта: Постоянный
Битрейт: 192 Кбит/сек
Каналы: 2 канала
Расположение каналов: Front: L R
Частота: 48,0 КГц
Битовая глубина: 16 бит
Метод сжатия: С потерями
Размер потока: 124 Мбайт (8%)
Выравнивание: Разделение по промежуткам
Продолжительность промежутка: 42мс. (1,00 видеокадр)
Время предзагрузки промежутка: 500 ms
Аудио #2
Идентификатор: 2
Формат: AC-3
Формат/Информация: Audio Coding 3
Расширение режима: CM (complete main)
Идентификатор кодека: 2000
Продолжительность: 1 ч. 29 м.
Вид битрейта: Постоянный
Битрейт: 192 Кбит/сек
Каналы: 2 канала
Расположение каналов: Front: L R
Частота: 48,0 КГц
Битовая глубина: 16 бит
Метод сжатия: С потерями
Размер потока: 124 Мбайт (8%)
Выравнивание: Разделение по промежуткам
Продолжительность промежутка: 42мс. (1,00 видеокадр)
Время предзагрузки промежутка: 500 ms




реклама партнёра


Вернуться к началу
 Профиль Отправить личное сообщение  
 
   Похожие торренты   Автор   Торрент   Размер 
В этой теме нет новых непрочитанных сообщений. Американский ниндзя / American Ninja [Боевик, приключения, 1985] HDTVRip 1080p, Mvo+Sub

salma3

35 | 3

8.05 ГБ

В этой теме нет новых непрочитанных сообщений. Американский ниндзя / American Ninja [боевик, мелодрама, приключения, 1985] BDRip, Dvo [СТС]

salma3

58 | 6

1.46 ГБ

В этой теме нет новых непрочитанных сообщений. Американский ниндзя 2: Схватка / American Ninja 2: The Confrontation [Боевик, 1987] HDTVRip 1080p, Mvo+Avo

salma3

25 | 4

7.78 ГБ

В этой теме нет новых непрочитанных сообщений. Американский якудза / American Yakuza [Боевик, 1993] DVDRip, Mvo+2Avo

salma3

51 | 6

1.47 ГБ

В этой теме нет новых непрочитанных сообщений. Охота на мутантов / Mutant Hunt [фантастика, боевик, 1987] DVDRip, Avo

salma3

32 | 5

1.46 ГБ

В этой теме нет новых непрочитанных сообщений. Американский самурай / American Samurai [Боевик, 1992] DVDRip, Avo [Гаврилов]

salma3

2 | 3

1.47 ГБ

В этой теме нет новых непрочитанных сообщений. Чужие против ниндзя / Alien vs. Ninja [ужасы, боевик, фантастика, комедия, 2010] DVDRip, Mvo

salma3

4 | 2

1.37 ГБ


Начать новую тему Ответить на тему  [ 1 сообщение ] 




Для Мосгорсуда, Роскомнадзора и рекламодателей:: mosgorsud-torrent[собачка]yandex.ru