Торрент файл
скачать торрент магнет ссылка Добавлен: 08 янв 2013, 18:18
Размер: 1.37 ГБ
Сидеров: 37
Личеров: 9
Статус: (salma3)
Автор

СообщениеДобавлено: 08 янв 2013, 18:18 

В сети
Супермодератор
Аватара пользователя
Дата регистрации:
15 фев 2012, 16:44
Возраст: 27
Спасибо: 5143 / 2090
Сообщения: 17503

Возвращение Фантоцци / Fantozzi - Il ritorno

Год выхода: 1996
Жанр: Комедия
Режиссер: Нери Паренти
В ролях: Паоло Вилладжо, Милена Вукотич, Маурицио Антонини, Анджело Бернабуччи, Тони Бреннеро, Акилле Бруньини, Анна Маццамауро, Джанни Франко, Джиджи Редер, Джулио Массимини, Джулиано Чизелли, Тони Бреннеро, Биг Джимми, Маурицио Маттиоли, Паоло Паолони, Нери Паренти, Нелло Риви, Фабио Траверса, Антонио Аллокка, Альберто Колаианни, Пьеро Вивальди, Вальтер Нудо

О фильме:
Уго Фантоцци возвращается на Землю из Рая. Здесь ему приходится спасать похищенную внучку, платить огромные счета за секс по телефону, синьора Сильвани хочет сделать пластическую операцию и под видом беременной от Фантоцци, требует денеги от него, он даже садится в тюрьму вместо своего босса. И едва начинается чемпионат мира по футболу, в котором, естественно, принимает участие сборная Италии, его вновь призывают на небеса... Смотря этот фильм, вы не переставая будете смеяться до коликов.


Страна: Италия
Продолжительность: 01:36:37
Перевод: Профессиональный [многоголосый, закадровый]

Файл
Кодек: DivX 5
Качество: DVDRip
Видео: 704x576, 1824 Кбит/с, 25 fps
Звук: АС3, 2 ch, 192 Кбит/с
Субтитры: Нет

Семпл


General
Complete name: D:Vozvrashchenie.Fantocci.1996.DivX.DVDRip.avi
Format: AVI
Format/Info: Audio Video Interleave
File size: 1.37 GiB
Duration: 1h 36mn
Overall bit rate: 2 025 Kbps
Writing application:
Writing library: The best and REALLY easy backup tool

Video
ID: 0
Format: MPEG-4 Visual
Format settings, BVOP: Yes
Format settings, QPel: No
Format settings, GMC: No warppoints
Format settings, Matrix: Default (H.263)
Muxing mode: Packed bitstream
Codec ID: DX50
Codec ID/Hint: DivX 5
Duration: 1h 36mn
Bit rate: 1 824 Kbps
Width: 704 pixels
Height: 576 pixels
Display aspect ratio: 1.222
Frame rate: 25.000 fps
Resolution: 8 bits
Colorimetry: 4:2:0
Scan type: Progressive
Bits/(Pixel*Frame): 0.180
Stream size: 1.23 GiB (90%)
Writing library: DivX 6.8.5 (UTC 2009-08-20)

Audio
ID: 1
Format: AC-3
Format/Info: Audio Coding 3
Codec ID: 2000
Duration: 1h 36mn
Bit rate mode: Constant
Bit rate: 192 Kbps
Channel(s): 2 channels
Channel positions: Front: L R
Sampling rate: 48.0 KHz
Stream size: 133 MiB (9%)
Alignment: Split accross interleaves
Interleave, duration: 40 ms (1.00 video frame)
Interleave, preload duration: 500 ms




реклама партнёра


Вернуться к началу
 Профиль Отправить личное сообщение  
 
   Похожие торренты   Автор   Торрент   Размер 
В этой теме нет новых непрочитанных сообщений. Возвращение Джанго / Django 2: Il grande ritorno [вестерн, 1987] DVDRip, Avo

salma3

45 | 6

1.46 ГБ

В этой теме нет новых непрочитанных сообщений. Аладдин-2. Возвращение Джафара / The Return of Jafar [Полнометражный мультфильм, комедия, 1994] DVDRip, Dub [КПК]

salma3

90 | 4

227.62 МБ

В этой теме нет новых непрочитанных сообщений. Атомная школа: Возвращение / Return to Nuke 'Em High Volume 1 [Ужасы, фантастика, комедия, 2013] DVDRip, Dvo

salma3

39 | 3

1.3 ГБ

В этой теме нет новых непрочитанных сообщений. Не стоило / Fallait pas!... [комедия, 1996] DVDRip, Dub

salma3

5 | 2

1.45 ГБ

В этой теме нет новых непрочитанных сообщений. Проект: Альф / Project: Alf [комедия, 1996] DVDRip, Dvo

salma3

21 | 6

1.45 ГБ

В этой теме нет новых непрочитанных сообщений. Клад / The Grave [триллер, комедия, 1996] DVDRip, Avo

salma3

19 | 3

1.37 ГБ

В этой теме нет новых непрочитанных сообщений. Большое турне / Les Grands Ducs [Комедия, 1996] DVDRip-AVC, Dvo

salma3

41 | 9

1.63 ГБ


Начать новую тему Ответить на тему  [ 1 сообщение ] 




Для Мосгорсуда, Роскомнадзора и рекламодателей:: mosgorsud-torrent[собачка]yandex.ru