Торрент файл
скачать торрент магнет ссылка Добавлен: 06 янв 2013, 18:56
Размер: 1.47 ГБ
Сидеров: 125
Личеров: 9
Статус: (salma3)
Автор

СообщениеДобавлено: 06 янв 2013, 18:56 

Не в сети
Супермодератор
Аватара пользователя
Дата регистрации:
15 фев 2012, 16:44
Возраст: 27
Спасибо: 5130 / 2089
Сообщения: 17372

Второй трагический Фантоцци / Il Secondo tragico Fantozzi

Год выхода: 1976
Жанр: Комедия
Режиссер: Лучиано Салче
В ролях: Паоло Вилладжио, Анна Маццамаура, Лью Босисио, Джиджи Редер, Уго Болонья, Мауро Вестри, Плинио Фернандо, Антонио Фаа' Ди Бруно, Ньетта Зокки, Паоло Паолони, Джузеппе Анатрелли

О фильме:
Его жена уехала к маме. А он решил устроить мальчишник: друзья, пиво, девушки, танцы. Через три часа пиво кончилось, девушки разделись. А жена вернулась за любимым зонтиком…



Страна: Италия
Студия: Rizzoli Film S.P.A.
Продолжительность: 01:44:59
Перевод: Профессиональный [многоголосый закадровый]

Файл
Кодек: XviD
Качество: DVDRip
Видео: 704x384, ~1799 kbps, 25 fps
Звук: AC3, 2 ch, ~192 kbps
Субтитры: Нет

Семпл



General
Complete name : K: Il.secondo.tragico.Fantozzi.1976.XviD.DVDRip.avi
Format : AVI
Format/Info : Audio Video Interleave
File size : 1.47 GiB
Duration : 1h 44mn
Overall bit rate : 2 002 Kbps
Writing application : VirtualDubMod 1.5.10.2 (build 2540/release)
Writing library : VirtualDubMod build 2540/release

Video
ID : 0
Format : MPEG-4 Visual
Format profile : Advanced Simple@L5
Format settings, BVOP : Yes
Format settings, QPel : No
Format settings, GMC : No warppoints
Format settings, Matrix : Default (H.263)
Codec ID : XVID
Codec ID/Hint : XviD
Duration : 1h 44mn
Bit rate : 1 800 Kbps
Width : 704 pixels
Height : 384 pixels
Display aspect ratio : 16:9
Frame rate : 25.000 fps
Resolution : 8 bits
Colorimetry : 4:2:0
Scan type : Progressive
Bits/(Pixel*Frame) : 0.266
Stream size : 1.32 GiB (90%)
Writing library : XviD 1.2.1 (UTC 2008-12-04)

Audio
ID : 1
Format : AC-3
Format/Info : Audio Coding 3
Codec ID : 2000
Duration : 1h 44mn
Bit rate mode : Constant
Bit rate : 192 Kbps
Channel(s) : 2 channels
Channel positions : Front: L R
Sampling rate : 48.0 KHz
Stream size : 144 MiB (10%)
Alignment : Split accross interleaves
Interleave, duration : 40 ms (1.00 video frame)
Interleave, preload duration : 500 ms




реклама партнёра


Вернуться к началу
 Профиль Отправить личное сообщение  
 
   Похожие торренты   Автор   Торрент   Размер 
В этой теме нет новых непрочитанных сообщений. Богат И Знаменит 2 / Трагический Герой / Ying hung ho hon [боевик, драма, криминал, 1987] DVDRip, Avo

salma3

7 | 2

1.37 ГБ

В этой теме нет новых непрочитанных сообщений. Пленник Второй авеню / The Prisoner of Second Avenue [комедия, 1975] DVDRip, Mvo

salma3

18 | 4

1.46 ГБ

В этой теме нет новых непрочитанных сообщений. О, Серафина! / Oh, Serafina! [мелодрама, комедия, 1976] DVDRip, Dvo+Avo

salma3

9 | 4

1.56 ГБ

В этой теме нет новых непрочитанных сообщений. Сатанинское зелье / Satansbraten [драма, комедия, 1976] DVDRip, Mvo

salma3

11 | 2

1.36 ГБ

В этой теме нет новых непрочитанных сообщений. Месть девочек из группы поддержки / Revenge of the Cheerleaders [Комедия, 1976] DVDRip, Avo

salma3

60 | 2

1.37 ГБ

В этой теме нет новых непрочитанных сообщений. Гарри и Уолтер едут в Нью-Йорк / Harry and Walter Go to New York [комедия, криминал, 1976] DVDRip, Mvo

salma3

215 | 43

1.47 ГБ

В этой теме нет новых непрочитанных сообщений. Второй шанс / Danny Collins (Дэн Фогельман) [драма, комедия, 2015] WEB-DLRip, Dub [iTunes]

Dracon

3 | 1

1.46 ГБ


Начать новую тему Ответить на тему  [ 1 сообщение ] 




Для Мосгорсуда, Роскомнадзора и рекламодателей:: mosgorsud-torrent[собачка]yandex.ru