Торрент файл
скачать торрент магнет ссылка Добавлен: 06 янв 2013, 18:45
Размер: 1.37 ГБ
Сидеров: 101
Личеров: 5
Статус: (salma3)
Автор

СообщениеДобавлено: 06 янв 2013, 18:45 

Не в сети
Супермодератор
Аватара пользователя
Дата регистрации:
15 фев 2012, 16:44
Возраст: 28
Спасибо: 6593 / 2145
Сообщения: 44246

Фантоцци уходит на пенсию / Fantozzi va in pensione

Год выхода: 1988
Жанр: Комедия
Режиссер: Нери Паренти
В ролях: Паоло Вилладжио, Милена Вукотич, Анна Маццамауро, Джиджи Редер, Плинио Фернандо, Антонио Алокка

О фильме:
После 30-ти лет работы в Мегафирме Фантоцци уходит на пенсию. 30 лет рабства! Но оказывается, что пенсия - не освобождение. Она - лишь продолжение хлопот. Точнее - начало новых проблем. Дома Фантоцци сидеть не может, и он снова идет на работу, однако туда его уже не пропускают. Фантоцци решает придумать хобби - и заводит себе щенка. Через несколько считанных месяцев тот вырастает до гигантских размеров.


Страна: Италия
Студия: Cecchi Gori Group Tiger Cinematografica
Продолжительность: 01:34:36
Перевод: Профессиональный многоголосый (закадровый)

Файл
Кодек: XviD
Качество: DVDRip
Видео: 704x416, ~1803 Кбит/с, 25 fps
Звук: MP2, 2ch, 256 Кбит/с
Субтитры: Нет

Семпл

General
Complete name : F:Fantotsi.uhodit.na.pensiyu.1988.XviD.DVDRip.avi
Format : AVI
Format/Info : Audio Video Interleave
File size : 1.37 GiB
Duration : 1h 34mn
Overall bit rate : 2 068 Kbps
Writing application : VirtualDubMod 1.5.10.2 (build 2540/release)
Writing library : VirtualDubMod build 2540/release

Video
ID : 0
Format : MPEG-4 Visual
Format profile : Advanced Simple@L5
Format settings, BVOP : 2
Format settings, QPel : No
Format settings, GMC : No warppoints
Format settings, Matrix : Default (H.263)
Muxing mode : Packed bitstream
Codec ID : XVID
Codec ID/Hint : XviD
Duration : 1h 34mn
Bit rate : 1 803 Kbps
Width : 704 pixels
Height : 416 pixels
Display aspect ratio : 1.692
Frame rate : 25.000 fps
Color space : YUV
Chroma subsampling : 4:2:0
Bit depth : 8 bits
Scan type : Progressive
Compression mode : Lossy
Bits/(Pixel*Frame) : 0.246
Stream size : 1.19 GiB (87%)
Writing library : XviD 1.2.1 (UTC 2008-12-04)

Audio
ID : 1
Format : MPEG Audio
Format version : Version 1
Format profile : Layer 2
Codec ID : 50
Duration : 1h 34mn
Bit rate mode : Constant
Bit rate : 256 Kbps
Channel(s) : 2 channels
Sampling rate : 48.0 KHz
Compression mode : Lossy
Stream size : 173 MiB (12%)
Alignment : Aligned on interleaves
Interleave, duration : 40 ms (1.00 video frame)
Interleave, preload duration : 504 ms





реклама партнёра


Вернуться к началу
 Профиль Отправить личное сообщение  
 
   Похожие торренты   Автор   Торрент   Размер 
В этой теме нет новых непрочитанных сообщений. Фантоцци уходит на пенсию / Fantozzi va in pensione [Комедия, 1988] DVDRip-AVC, Mvo

salma3

113 | 69

3.64 ГБ

В этой теме нет новых непрочитанных сообщений. Фантоцци / Fantozzi [Комедия, 1975] DVDRip-AVC, Mvo

salma3

188 | 40

3.54 ГБ

В этой теме нет новых непрочитанных сообщений. Фантоцци в раю / Fantozzi in paradiso [Комедия, 1993] DVDRip-AVC, Mvo

salma3

124 | 26

3.07 ГБ

В этой теме нет новых непрочитанных сообщений. Возвращение Фантоцци / Fantozzi - Il ritorno [Комедия, 1996] DVDRip-AVC, Mvo

salma3

61 | 10

3.1 ГБ

В этой теме нет новых непрочитанных сообщений. Фантоцци берет реванш / Fantozzi alla riscossa [Комедия, 1990] DVDRip-AVC, Mvo

salma3

105 | 27

3.34 ГБ

В этой теме нет новых непрочитанных сообщений. Второй трагический Фантоцци / Il secondo tragico Fantozzi [Комедия, 1976] DVDRip-AVC, Mvo

salma3

138 | 31

3.68 ГБ

В этой теме нет новых непрочитанных сообщений. У Фантоцци опять неприятности / Fantozzi subisce ancora [Комедия, 1983] DVDRip-AVC, Mvo

salma3

109 | 53

3.4 ГБ


Начать новую тему Ответить на тему  [ 1 сообщение ] 




Для Мосгорсуда, Роскомнадзора и рекламодателей:: mosgorsud-torrent[собачка]yandex.ru