Торрент файл
скачать торрент магнет ссылка Добавлен: 06 янв 2013, 16:16
Размер: 1.45 ГБ
Сидеров: 12
Личеров: 1
Статус: (Dracon)
Автор

СообщениеДобавлено: 06 янв 2013, 16:16 

Не в сети
Зам. Админа
Аватара пользователя
Дата регистрации:
02 дек 2010, 12:39
Спасибо: 12461 / 214
Сообщения: 27968

Год выхода: 2012
Жанр: боевик, драма, криминал
Режиссер: Поу-Сои Чинг

В ролях: Энтони Вонг Чау-Санг, Шон Юе, Го Сяодун, Барби Хсю, Джози Хо, Ка Танг Лам, Guangjie Li, Мишель Йе...

О фильме: Есть четыре персонажа — два копа и два преступника. Первый коп — молодой и борзый, он любит гонять по автостраде за нарушителями, поэтому на собственные деньги прокачивает свою патрульную машину. Второй — бывалый ветеран, три дня до пенсии. Он способен делать на дороге крутые штуки; знает, что молодой напарник еще не созрел для настоящего драйва, но предпочитает не лезть в бутылку без лишнего повода. Первый преступник — налетчик и стрелок, безжалостный убийца, профессиональный «гастролер». Он случайно попадает в гонконгский КПЗ, поэтому срочно вызывает с материка своего напарника. Напарник — опытный водила для гоп-стопов с 20-летним стажем — организует побег своего партнера. После кровавой бани, учиненной в стенах КПЗ, преступникам надо сделать последний большой гоп-стоп и сбежать из города, все выезды из которого перекрыты полицейскими патрулями.



Страна: Гонконг
Продолжительность: 01:29:10
Перевод: Авторский одноголосый (Ю. Сербин)

Кодек: x.264
Качество: BDRip-AVC
Видео: 1024x554 (16:9), 24.000 fps,1943 kbps, 0.143 bit/pixel
Звук: 48 kHz, AC3 5.1, 384.00 kbps
Субтитры: Русские, Английские
Сэмпл

&

Общее
Уникальный идентификатор : 236583364490113183724794225556469942361 (0xB1FC4C7126840A0BA162BD88311D8859)
Полное имя : D:Motorway.2012.BDRip-AVC.mkv
Формат : Matroska
Версия формата : Version 4 / Version 2
Размер файла : 1,45 Гбайт
Продолжительность : 1 ч. 29 м.
Общий поток : 2325 Кбит/сек
Название фильма : Автострада / Motorway / Che sau (2012) BDRip-AVC rip by Rulya74
Дата кодирования : UTC 2010-02-22 21:41:31
Программа кодирования : mkvmerge v5.9.0 ('On The Loose') built on Dec 9 2012 15:37:01
Библиотека кодирования : libebml v1.3.0 + libmatroska v1.4.0

Видео
Идентификатор : 1
Формат : AVC
Формат/Информация : Advanced Video Codec
Профиль формата : High@L4.1
Параметр CABAC формата : Да
Параметр ReFrames формата : 14 кадров
Идентификатор кодека : V_MPEG4/ISO/AVC
Продолжительность : 1 ч. 29 м.
Битрейт : 1943 Кбит/сек
Ширина : 1024 пикселя
Высота : 554 пикселя
Соотношение сторон : 16:9
Частота кадров : 24,000 кадра/сек
Цветовое пространство : YUV
Субдискретизация насыщенности : 4:2:0
Битовая глубина : 8 бит
Тип развёртки : Прогрессивная
Бит/(Пиксели*Кадры) : 0.143
Размер потока : 1,18 Гбайт (81%)
Библиотека кодирования : x264 core 129 r2230 1cffe9f
Настройки программы : cabac=1 / ref=14 / deblock=1:-3:-3 / analyse=0x3:0x133 / me=umh / subme=10 / psy=1 / psy_rd=1.28:0.00 / mixed_ref=1 / me_range=40 / chroma_me=1 / trellis=2 / 8x8dct=1 / cqm=0 / deadzone=21,11 / fast_pskip=0 / chroma_qp_offset=-2 / threads=16 / lookahead_threads=2 / sliced_threads=0 / nr=0 / decimate=1 / interlaced=0 / bluray_compat=0 / constrained_intra=0 / bframes=11 / b_pyramid=2 / b_adapt=1 / b_bias=0 / direct=3 / weightb=1 / open_gop=0 / weightp=2 / keyint=240 / keyint_min=22 / scenecut=40 / intra_refresh=0 / rc_lookahead=40 / rc=2pass / mbtree=1 / bitrate=1943 / ratetol=1.0 / qcomp=0.60 / qpmin=10 / qpmax=69 / qpstep=4 / cplxblur=20.0 / qblur=0.5 / ip_ratio=1.40 / aq=1:1.00
Default : Да
Forced : Нет

Аудио
Идентификатор : 2
Формат : AC-3
Формат/Информация : Audio Coding 3
Расширение режима : CM (complete main)
Идентификатор кодека : A_AC3
Продолжительность : 1 ч. 29 м.
Вид битрейта : Постоянный
Битрейт : 384 Кбит/сек
Каналы : 6 каналов
Расположение каналов : Front: L C R, Side: L R, LFE
Частота : 48,0 КГц
Битовая глубина : 16 бит
Метод сжатия : С потерями
Размер потока : 245 Мбайт (17%)
Заголовок : Авторский одноголосый (Ю. Сербин)
Язык : Russian
Default : Да
Forced : Нет

Текст #1
Идентификатор : 3
Формат : UTF-8
Идентификатор кодека : S_TEXT/UTF8
Идентификатор кодека/Информация : UTF-8 Plain Text
Язык : Russian
Default : Да
Forced : Нет

Текст #2
Идентификатор : 4
Формат : UTF-8
Идентификатор кодека : S_TEXT/UTF8
Идентификатор кодека/Информация : UTF-8 Plain Text
Язык : English
Default : Нет
Forced : Нет

Меню
00:00:00.000 : en:Chapter 01
00:03:27.500 : en:Chapter 02
00:07:43.541 : en:Chapter 03
00:11:43.500 : en:Chapter 04
00:15:59.666 : en:Chapter 05
00:20:38.083 : en:Chapter 06
00:24:34.500 : en:Chapter 07
00:27:42.500 : en:Chapter 08
00:34:02.083 : en:Chapter 09
00:39:55.708 : en:Chapter 10
00:44:04.375 : en:Chapter 11
00:47:28.750 : en:Chapter 12
00:51:44.791 : en:Chapter 13
00:58:13.041 : en:Chapter 14
01:00:56.708 : en:Chapter 15
01:04:16.875 : en:Chapter 16
01:08:34.750 : en:Chapter 17
01:12:51.083 : en:Chapter 18
01:19:16.875 : en:Chapter 19
01:23:25.708 : en:Chapter 20
01:29:09.791 : en:Chapter 21





реклама партнёра


Вернуться к началу
 Профиль  
 
   Похожие торренты   Автор   Торрент   Размер 
В этой теме нет новых непрочитанных сообщений. Автострада / Motorway / Che sau [Боевик, драма, криминал, 2012] BDRip 720р, Avo+Sub

salma3

202 | 35

5.67 ГБ

В этой теме нет новых непрочитанных сообщений. Контрабанда / Contraband [боевик, триллер, драма, криминал, 2012] BDRip 720p, Dub+Avo+Sub

salma3

108 | 33

7.63 ГБ

В этой теме нет новых непрочитанных сообщений. Перекресток смерти / True Justice [Боевик, триллер, драма, криминал, 2012] BDRip 720p, Dub [РЕН ТВ]

salma3

16 | 5

3.17 ГБ

В этой теме нет новых непрочитанных сообщений. Защитник / Safe [боевик, триллер, криминал, 2012] BDRip-AVC, Dub

salma3

32 | 1

2.18 ГБ

В этой теме нет новых непрочитанных сообщений. Защитник / Safe [боевик, триллер, криминал, 2012] BDRip, Avo

salma3

4 | 1

1.46 ГБ

В этой теме нет новых непрочитанных сообщений. Заложница: Дилогия / Taken: Dilogy [боевик, триллер, криминал , 2008-2012] BDRip, Dub

salma3

123 | 15

2.91 ГБ

В этой теме нет новых непрочитанных сообщений. Шкала агрессии / The Aggression Scale [боевик, триллер, криминал, 2012] BDRip, Dvo [НТВ+]

salma3

21 | 2

1.37 ГБ


Начать новую тему Ответить на тему  [ 1 сообщение ] 




Для Мосгорсуда, Роскомнадзора и рекламодателей:: mosgorsud-torrent[собачка]yandex.ru