Торрент файл
скачать торрент магнет ссылка Добавлен: 02 янв 2013, 15:21
Размер: 2.19 ГБ
Сидеров: 31
Личеров: 2
Статус: (drink)
Автор

СообщениеДобавлено: 02 янв 2013, 15:21 

Не в сети
Зам. Админа
Аватара пользователя
Дата регистрации:
02 дек 2010, 12:39
Спасибо: 12461 / 214
Сообщения: 27968

Год выхода: 2012
Жанр:комедия, музыка
Режиссер: Джейсон Мур
В ролях: Анна Кендрик, Скайлар Эстин, Бен Платт, Бриттани Сноу, Анна Кэмп, Ребел Уилсон, Алексис Кнапп, Эстер Дин, Хана Мэй Ли, Келли Джейкл…

Сюжет фильма: Картина основывается на книге Мики Рэпкина «Пой идеально: Погоня за славной вокалиста а капелла», в которой рассказывается о студентке, внезапно обнаружившей в себе страсть к пению а капелла, то есть, без музыкального сопровождения.

Продолжительность: 01:52:07
Перевод: Профессиональный (одноголосый) [А. Дасевич]
Выпущено: США

Качество: BDRip [720p]
Видео: 1280x688, 2408 Кбит/сек, 23,976 кадр/сек, AVC, x264, 1,85:1, 0.114 Бит/[Пиксели*Кадры], 2pass
Аудио: AC-3, 384 Кбит/сек, 6 канала(ов), 48,0 КГц
Размер: 2,19 ГБ

Бюджет Фильма: -
Кассовые сборы: -

Релиз от:







Формат: Matroska
Версия формата: Version 2
Размер файла: 2,19 Гбайт
Продолжительность: 1 ч. 52 м.
Общий поток: 2793 Кбит/сек
Дата кодирования: UTC 2013-01-02 10:53:38
Программа кодирования: mkvmerge v5.8.0 ('No Sleep / Pillow') built on Sep2 2012 15:37:04
Библиотека кодирования: libebml v1.2.3 + libmatroska v1.3.0

Видео
Идентификатор: 1
Формат: AVC
Формат/Информация: Advanced Video Codec
Профиль формата: High@L3.1
Параметр CABAC формата: Да
Параметр ReFrames формата: 4 кадра
Идентификатор кодека: V_MPEG4/ISO/AVC
Продолжительность: 1 ч. 52 м.
Битрейт: 2408 Кбит/сек
Ширина: 1280 пикселей
Высота: 688 пикселей
Соотношение сторон: 1,85:1
Соотношение сторон в оригинале: 1,85:1
Режим частоты кадров: Постоянный
Частота кадров: 23,976 кадра/сек
Цветовое пространство: YUV
Субдискретизация насыщенности: 4:2:0
Битовая глубина: 8 бит
Тип развёртки: Прогрессивная
Бит/(Пиксели*Кадры): 0.114
Размер потока: 1,84 Гбайт (84%)
Библиотека кодирования: x264 core 129 r2230 1cffe9f
Настройки программы: cabac=1 / ref=3 / deblock=1:0:0 / analyse=0x3:0x133 / me=hex / subme=7 / psy=1 / psy_rd=1.00:0.00 / mixed_ref=1 / me_range=16 / chroma_me=1 / trellis=1 / 8x8dct=1 / cqm=0 / deadzone=21,11 / fast_pskip=1 / chroma_qp_offset=-2 / threads=6 / lookahead_threads=1 / sliced_threads=0 / nr=0 / decimate=1 / interlaced=0 / bluray_compat=0 / constrained_intra=0 / bframes=3 / b_pyramid=2 / b_adapt=1 / b_bias=0 / direct=1 / weightb=1 / open_gop=0 / weightp=2 / keyint=240 / keyint_min=23 / scenecut=40 / intra_refresh=0 / rc_lookahead=40 / rc=2pass / mbtree=1 / bitrate=2408 / ratetol=1.0 / qcomp=0.60 / qpmin=0 / qpmax=69 / qpstep=4 / cplxblur=20.0 / qblur=0.5 / ip_ratio=1.40 / aq=1:1.00
Язык: English
Default: Да
Forced: Нет

Аудио
Идентификатор: 2
Формат: AC-3
Формат/Информация: Audio Coding 3
Расширение режима: CM (complete main)
Параметр Endianness формата: Big
Идентификатор кодека: A_AC3
Продолжительность: 1 ч. 52 м.
Вид битрейта: Постоянный
Битрейт: 384 Кбит/сек
Каналы: 6 каналов
Расположение каналов: Front: L C R, Side: L R, LFE
Частота: 48,0 КГц
Битовая глубина: 16 бит
Метод сжатия: С потерями
Размер потока: 308 Мбайт (14%)
Default: Да
Forced: Нет




реклама партнёра


Вернуться к началу
 Профиль  
 
   Похожие торренты   Автор   Торрент   Размер 
В этой теме нет новых непрочитанных сообщений. Идеальный голос 2 / Pitch Perfect 2 (Элизабет Бэнкс) [комедия, музыка, 2015] BDRip 720p, Dub+Sub [Лицензия]

Dracon

257 | 32

5.68 ГБ

В этой теме нет новых непрочитанных сообщений. Идеальный голос 2 / Pitch Perfect 2 (Элизабет Бэнкс) [комедия, музыка, 2015] BDRip 1080p, Dub+Sub [Blu-ray CEE]

Dracon

112 | 10

12.42 ГБ

В этой теме нет новых непрочитанных сообщений. Идеальный голос 2 / Pitch Perfect 2 (Элизабет Бэнкс) [комедия, музыка, 2015] HDRip, Dub [iTunes]

Dracon

4 | 2

2.05 ГБ

В этой теме нет новых непрочитанных сообщений. Идеальный голос 2 / Pitch Perfect 2 (Элизабет Бэнкс) [комедия, музыка, 2015] HDRip, Dub [iTunes]

Dracon

222 | 9

1.46 ГБ

В этой теме нет новых непрочитанных сообщений. Идеальный голос 2 / Pitch Perfect 2 (Элизабет Бэнкс) [комедия, музыка, 2015] Blu-Ray Remux 1080p, Dub [iTunes]

Dracon

4 | 0

25.01 ГБ

В этой теме нет новых непрочитанных сообщений. Идеальный выбор / The Perfect Match [мелодрама, комедия, 2016] BDRip 720p, Mvo

salma3

180 | 36

3.99 ГБ

В этой теме нет новых непрочитанных сообщений. Спит ли Долли на спине? / Почти идеален / Sоver Dоlly pa rуggen? / Almost Perfect [комедия, музыка, 2012] BDRip 720p, avo+sub

Dracon

2 | 2

4.7 ГБ


Начать новую тему Ответить на тему  [ 1 сообщение ] 




Для Мосгорсуда, Роскомнадзора и рекламодателей:: mosgorsud-torrent[собачка]yandex.ru