Торрент файл
скачать торрент магнет ссылка Добавлен: 02 янв 2013, 02:10
Размер: 1.46 ГБ
Сидеров: 23
Личеров: 7
Статус: (salma3)
Автор

СообщениеДобавлено: 02 янв 2013, 02:10 

Не в сети
Супермодератор
Аватара пользователя
Дата регистрации:
15 фев 2012, 16:44
Возраст: 27
Спасибо: 6224 / 2125
Сообщения: 33548

Брат якудзы / Brother

Год выхода: 2000
Жанр: триллер, драма, криминал
Режиссер: Такеши Китано / Takeshi Kitano
В ролях: Такеши Китано (Aniki Yamamoto), Омар Эппс (Denny), Куроудо Маки (Ken), Масая Като (Shirase), Сусуму Тэрадзима (Kato), Ройял Уоткинс (Jay),

О фильме:
После разгрома родного мафиозного клана боевик Аники Ямамото по прозвищу Старший Брат бежит из Японии в Америку. Здесь его встречает чужой, но не менее жестокий мир безжалостной борьбы за власть в преступной среде, в которой Ямамото решительно отвоевывает себе место, следуя древнему кодексу «якудзы».
Полагаясь только на свои силы и дорожа верными друзьями, он в одиночку ведет войну с врагами, зная, что в самом конце кровавого пути его ждет триумф или смерть...



Страна: США, Великобритания, Япония
Студия: Bandai Visual Co. Ltd., Fuzzy Bunny Films (I), Little Brother Inc., Office Kitano, Recorded Picture Company (RPC), Tokyo FM Broadcasting Co. Ltd.
Продолжительность: 01:53:20
Перевод: Профессиональный (двухголосый)


Файл
Качество: HDRip- Исходник: BDRip 720p
Кодек: XviD
Видео: 720х384 (1,875:1), 24 fps, XviD ~ 1382 kbps avg, 0.208 bit/pixel
Аудио: 48 kHz, AC3, 6 ch, 448.00 kbps

Раздача от:

Общее
Полное имя: Брат якудзыBrat.jakudzy.2000.HDRip_[Youtracker]_by_AVP Studio.mkv.avi
Формат: AVI
Формат/Информация: Audio Video Interleave
Размер файла: 1,46 Гбайт
Продолжительность: 1 ч. 53 м.
Общий поток: 1840 Кбит/сек
Программа кодирования: VirtualDubMod 1.5.10.3 | http://www.virtualdub-fr.org || (build 2550/release)
Библиотека кодирования: VirtualDubMod build 2550/release

Видео
Идентификатор: 0
Формат: MPEG-4 Visual
Профиль формата: Advanced Simple@L5
Параметр BVOP формата: 1
Параметр QPel формата: Нет
Параметр GMC формата: Без точки перехода
Параметр матрицы формата: Выборочная
Идентификатор кодека: XVID
Идентификатор кодека/Подсказка: XviD
Продолжительность: 1 ч. 53 м.
Битрейт: 1382 Кбит/сек
Ширина: 720 пикселей
Высота: 384 пикселя
Соотношение сторон: 1,875
Частота кадров: 24,000 кадра/сек
Цветовое пространство: YUV
Субдискретизация насыщенности: 4:2:0
Битовая глубина: 8 бит
Тип развёртки: Прогрессивная
Метод сжатия: С потерями
Бит/(Пиксели*Кадры): 0.208
Размер потока: 1,09 Гбайт (75%)
Библиотека кодирования: XviD 65

Аудио
Идентификатор: 1
Формат: AC-3
Формат/Информация: Audio Coding 3
Расширение режима: CM (complete main)
Идентификатор кодека: 2000
Продолжительность: 1 ч. 53 м.
Вид битрейта: Постоянный
Битрейт: 448 Кбит/сек
Каналы: 6 каналов
Расположение каналов: Front: L C R, Side: L R, LFE
Частота: 48,0 КГц
Битовая глубина: 16 бит
Метод сжатия: С потерями
Размер потока: 363 Мбайт (24%)
Выравнивание: Разделение по промежуткам
Продолжительность промежутка: 42мс. (1,00 видеокадр)
Время предзагрузки промежутка: 500мс






реклама партнёра


Вернуться к началу
 Профиль Отправить личное сообщение  
 
   Похожие торренты   Автор   Торрент   Размер 
В этой теме нет новых непрочитанных сообщений. О, где же ты, брат? / O Brother, Where Art Thou? [комедия, криминал, приключения, музыка, 2000] BDRip 720p, Dub

salma3

51 | 20

12.68 ГБ

В этой теме нет новых непрочитанных сообщений. Мой слепой брат / My Blind Brother [драма, мелодрама, комедия, 2016] HDRip, Mvo

salma3

262 | 76

1.37 ГБ

В этой теме нет новых непрочитанных сообщений. Брат-Природа / Brother Nature [комедия, 2016] WEB-DLRip, Mvo

salma3

433 | 37

1.37 ГБ

В этой теме нет новых непрочитанных сообщений. Брат-Природа / Brother Nature [комедия, 2016] WEB-DLRip 720р, Mvo

salma3

85 | 9

3.21 ГБ

В этой теме нет новых непрочитанных сообщений. My Step Brother Likes To Fuck Me / Мой Брат Любит Трахать Меня (2016) WEB-DL

amadei

3 | 4

1.77 ГБ

В этой теме нет новых непрочитанных сообщений. Тайный брат / Undercover Brother [Боевик, комедия, 2002] HDTV 1080i, Dvo

salma3

34 | 13

5.92 ГБ

В этой теме нет новых непрочитанных сообщений. Трубка Сталина: ход старого шамана ("Брат-2", Балабанов, 1997, 2000) Меняйлов [2014, комедия, боевик, HDRip]

vairgin

9 | 2

920.54 МБ


Начать новую тему Ответить на тему  [ 1 сообщение ] 




Для Мосгорсуда, Роскомнадзора и рекламодателей:: mosgorsud-torrent[собачка]yandex.ru