Торрент файл
скачать торрент магнет ссылка Добавлен: 31 дек 2012, 09:43
Размер: 3.54 ГБ
Сидеров: 1
Личеров: 2
Статус: (drink)
Автор

СообщениеДобавлено: 31 дек 2012, 09:43 

Не в сети
Зам. Админа
Аватара пользователя
Дата регистрации:
02 дек 2010, 12:39
Спасибо: 12461 / 214
Сообщения: 27968

Год выпуска: 2012
Страна: США
Жанр:Фантастика, драма
Продолжительность: 01:28:55
Перевод: Профессиональный (многоголосый закадровый) - BaiBako
Субтитры: Английские
Режиссер: Нир Панири

В ролях: Саша Ройз, Дженни Моллен, Доминик Богарт, Ричард Риле, Ник Джеймисон, Родни Истман, Фрэнк Эшмор, Брэд Калвер, Тай Симпкинс, Сара Томко

Описание: Главный герой Томас Джейкобс изобретает способ проникать в память людей и просматривать их воспоминания «своими глазами». Так он может возвращаться в собственные воспоминания и снова переживать счастливые моменты своей жизни. Но однажды Том вынужден действовать в разрез своим моральным принципам и использовать своё изобретение, чтобы войти в воспоминания одного наркомана и в буквальном смысле слова увидеть, совершал ли он преступление, в котором его обвиняют. Однако по причине повреждённости сознания преступника наркотиками, Том оказывается пойман в ловушке внутри его головы. Теперь ему предстоит прожить в памяти наркомана почти четыре года, до тех пор, пока он не обнаружит долгожданную возможность побега.


Перевод: Юлия Луцкая
Озвучка: Александр Фурман, Кристина Романова, Виталий Ткаченко и Татьяна Оболевич



Качество: BDRip 720p
Формат: МКV
Видео: MPEG-4 AVC, 3800 Кбит/с, 1280x534
Аудио rus:AC3, 6 ch, 384 Кбит/с
Аудио eng:DTS, 6 ch, 1510 Кбит/с

Полное имя: D:Extracted.2012.P.BDRip.720p.IRONCLUB.mkv
Формат: Matroska
Размер файла: 3,54 Гбайт
Продолжительность: 1 ч. 28 м.
Общий поток: 5693 Кбит/сек
Название фильма: IRONCLUB
Дата кодирования: UTC 2012-12-30 19:34:20
Программа кодирования: mkvmerge v5.2.0 ('I can't explain') built on Dec 18 2011 18:12:03
Библиотека кодирования: libebml v1.2.3 + libmatroska v1.3.0

Видео
Идентификатор: 1
Формат: AVC
Формат/Информация: Advanced Video Codec
Профиль формата: High@L4.1
Параметр CABAC формата: Да
Параметр ReFrames формата: 12 кадров
Идентификатор кодека: V_MPEG4/ISO/AVC
Продолжительность: 1 ч. 28 м.
Битрейт: 3686 Кбит/сек
Ширина: 1280 пикс.
Высота: 534 пикс.
Соотношение сторон: 2,35:1
Частота кадров: 23,976 кадр/сек
Цветовое пространство: YUV
Подвыборка цветности: 4:2:0
Битовая глубина: 8 бит
Тип развёртки: Прогрессивная
Бит/(Пиксели*Кадры): 0.225
Размер потока: 2,29 Гбайт (65%)
Заголовок: Extracted.2012.720p.BluRay.DTS.x264-EbP
Язык: English

Аудио #1
Идентификатор: 2
Формат: AC-3
Формат/Информация: Audio Coding 3
Расширение режима: CM (complete main)
Идентификатор кодека: A_AC3
Продолжительность: 1 ч. 28 м.
Вид битрейта: Постоянный
Битрейт: 384 Кбит/сек
Каналы: 6 каналов
Расположение каналов: Front: L C R, Side: L R, LFE
Частота: 48,0 КГц
Битовая глубина: 16 бит
Метод сжатия: С потерями
Размер потока: 244 Мбайт (7%)
Заголовок: DD 5.1 @ 384 kbps - MVO, [BaiBako]
Язык: Russian

Аудио #2
Идентификатор: 3
Формат: DTS
Формат/Информация: Digital Theater Systems
Идентификатор кодека: A_DTS
Продолжительность: 1 ч. 28 м.
Вид битрейта: Постоянный
Битрейт: 1510 Кбит/сек
Каналы: 6 каналов
Расположение каналов: Front: L C R, Side: L R, LFE
Частота: 48,0 КГц
Битовая глубина: 24 бит
Метод сжатия: С потерями
Размер потока: 960 Мбайт (27%)
Заголовок: DTS 5.1 @ 1536 kbps
Язык: English

Текст
Идентификатор: 4
Формат: UTF-8
Идентификатор кодека: S_TEXT/UTF8
Идентификатор кодека/Информация: UTF-8 Plain Text
Язык: English

Меню
00:00:00.000: en:00:00:00.000
00:08:10.949: en:00:08:10.949
00:16:35.995: en:00:16:35.995
00:25:47.004: en:00:25:47.004
00:35:21.953: en:00:35:21.953
00:45:43.991: en:00:45:43.991
00:53:41.969: en:00:53:41.969
01:02:02.928: en:01:02:02.928
01:08:15.925: en:01:08:15.925
01:14:02.897: en:01:14:02.897
01:22:08.924: en:01:22:08.924
01:25:06.893: en:01:25:06.893
01:26:39.945: en:01:26:39.945


Релиз от: IRONCLUB, [EbP]




реклама партнёра


Вернуться к началу
 Профиль  
 
   Похожие торренты   Автор   Торрент   Размер 
В этой теме нет новых непрочитанных сообщений. Бункер 11 / Outpost 11 [Фантастика, 2012] BDRip 720p, Avo

salma3

76 | 3

4.49 ГБ

В этой теме нет новых непрочитанных сообщений. Антивирусный / Antiviral [ужасы, фантастика, триллер, 2012] BDRip 720p, Dvo+Avo+Sub [НТВ+]

salma3

44 | 6

6.4 ГБ

В этой теме нет новых непрочитанных сообщений. Петля времени / Looper [фантастика, боевик, триллер, криминал, 2012] BDRip 720p, Dub+Avo [Лицензия]

salma3

74 | 4

4.37 ГБ

В этой теме нет новых непрочитанных сообщений. Знамение Судного дня / Двенадцать бедствий на Рождество / The 12 Disasters of Christmas [Фантастика, 2012] BDRip 720p, Mvo+Sub [лицензия]

Dracon

72 | 16

4.65 ГБ

В этой теме нет новых непрочитанных сообщений. Нападение акул на Нью-Джерси / Jersey Shore: Shark Attack [фантастика, боевик, триллер, 2012] BDRip 720p, Mvo

salma3

8 | 3

3.4 ГБ

В этой теме нет новых непрочитанных сообщений. Нацисты в центре Земли / Nazis at the Center of the Earth [фантастика, боевик, триллер, приключения, 2012] BDRip 720p, Mvo

salma3

50 | 6

3.93 ГБ

В этой теме нет новых непрочитанных сообщений. Она / Her [Мелодрама, драма, фантастика, 2013] BDRip 720p, dub+mvo+Avo+Sub

Dracon

149 | 6

10.58 ГБ


Начать новую тему Ответить на тему  [ 1 сообщение ] 




Для Мосгорсуда, Роскомнадзора и рекламодателей:: mosgorsud-torrent[собачка]yandex.ru