Торрент файл
скачать торрент магнет ссылка Добавлен: 31 дек 2012, 02:45
Размер: 745.13 МБ
Сидеров: 8
Личеров: 1
Статус: (salma3)
Автор

СообщениеДобавлено: 31 дек 2012, 02:45 

Не в сети
Супермодератор
Аватара пользователя
Дата регистрации:
15 фев 2012, 16:44
Возраст: 27
Спасибо: 5139 / 2089
Сообщения: 17411

В чужом ряду / Changing Lanes

Год выхода: 2002
Жанр: триллер, драма
Режиссер: Роджер Мишелл / Roger Michell
В ролях: Бен Аффлек, Сэмюэл Л. Джексон, Ким Стонтон, Тони Коллетт, Сидни Поллак, Тина Слоун, Ричард Дженкинс, Акил Уолкер, Коул Хоукинс, Айлин Гетз

О фильме:
Гэвин Банек — энергичный молодой человек, работающий юристом в фирме своего тестя на Уолл Стрит. Дойл Гипсон — представитель страховой компании, возвращающийся к нормальной жизни после алкоголизма. Его жена развелась с ним, и теперь планирует перебраться из Нью-Йорка в Портланд вместе с двумя их детьми.

Нью-Йорк, Пятница. Гипсон торопится в суд, чтобы отстоять там право видеться со своими сыновьями. Банек же едет на своем Мерседесе в суд, чтобы заверить одно многомиллионное завещание. Машины Банека и Гипсона оказываются в соседних рядах на дороге. Гипсон слишком занят обдумыванием своей речи в суде, а Банека отвлекает звонок по мобильному телефону. Они не замечают машин друг друга, один неверный поворот, и вот уже Банек и Гипсон — виновники дорожно-транспортного происшествия.

Жертв нет, однако ссора этих двух совершенно разных людей будет иметь большие последствия для каждого из них. Этот случай на дороге заставит двух незнакомцев развязать войну друг против друга. Со звериной ожесточенностью они будут пытаться отомстить друг другу, а гнев приведет каждого из них к краю самоуничтожения…



Страна: США
Продолжительность: 01:38:44
Перевод: Профессиональный (дублированный)

Файл
Кодек: XviD
Качество: HDRip
Видео: 672x288 (2.35:1), 23.976 fps, 918 Kbps, 0.198 Bits/(Pixel*Frame)
Звук: MP3, 48 KHz, 128 Kbps, 2 channels

Семпл

General
Complete name : D:V.chuzhom.rjadu.2002.HDRip.XviD.745mb2.avi
Format : AVI
Format/Info : Audio Video Interleave
File size : 745 MiB
Duration : 1h 38mn
Overall bit rate : 1 055 Kbps
Writing application : VirtualDubMod 1.5.10.2 (build 2540/release)
Writing library : VirtualDubMod build 2540/release
Video
ID : 0
Format : MPEG-4 Visual
Format profile : Advanced Simple@L5
Format settings, BVOP : 1
Format settings, QPel : No
Format settings, GMC : No warppoints
Format settings, Matrix : Default (MPEG)
Codec ID : XVID
Codec ID/Hint : XviD
Duration : 1h 38mn
Bit rate : 918 Kbps
Width : 672 pixels
Height : 288 pixels
Display aspect ratio : 2.35:1
Frame rate : 23.976 fps
Color space : YUV
Chroma subsampling : 4:2:0
Bit depth : 8 bits
Scan type : Progressive
Compression mode : Lossy
Bits/(Pixel*Frame) : 0.198
Stream size : 648 MiB (87%)
Writing library : XviD 1.2.1 (UTC 2008-12-04)
Audio
ID : 1
Format : MPEG Audio
Format version : Version 1
Format profile : Layer 3
Codec ID : 55
Codec ID/Hint : MP3
Duration : 1h 38mn
Bit rate mode : Constant
Bit rate : 128 Kbps
Channel(s) : 2 channels
Sampling rate : 48.0 KHz
Compression mode : Lossy
Stream size : 90.4 MiB (12%)
Alignment : Aligned on interleaves
Interleave, duration : 42 ms (1.00 video frame)
Interleave, preload duration : 504 ms
Writing library : LAME3.98r
Encoding settings : -m s -V 4 -q 2 -lowpass 17 -b 128









реклама партнёра


Вернуться к началу
 Профиль Отправить личное сообщение  
 
   Похожие торренты   Автор   Торрент   Размер 
В этой теме нет новых непрочитанных сообщений. В чужом ряду / Changing Lanes [триллер, драма, 2002] BDRip 1080p, Dub+Mvo+Sub

salma3

13 | 4

7.76 ГБ

В этой теме нет новых непрочитанных сообщений. Убийство в чужом городе / Picture Claire [триллер, 2001] DVDRip, Mvo

salma3

5 | 5

1.46 ГБ

В этой теме нет новых непрочитанных сообщений. Любовь, сбивающая с ног / Punch-Drunk Love [триллер, драма, мелодрама, комедия, 2002] HDRip, Dvo

salma3

0 | 0

1.45 ГБ

В этой теме нет новых непрочитанных сообщений. Saw Cross Lanes - Awaken from a sleepless dream [2011, Metalcore, MP3]

PriZraK

0 | 1

46.02 МБ

В этой теме нет новых непрочитанных сообщений. Jack White And The Bricks - Live On the Garden Bowl Lanes: July 9, 1999 [2013, Alt. Rock, MP3]

PriZraK

0 | 2

64.85 МБ

В этой теме нет новых непрочитанных сообщений. Anneke Van Giersbergen (ex-The Gathering, ex-Agua De Annique) - Everything Is Changing [2012, Alternative Rock,Female Vocal, MP3]

PriZraK

0 | 1

108.94 МБ

В этой теме нет новых непрочитанных сообщений. Свадьба моей любимой / Mere Yaar Ki Shaadi Hai [Мюзикл, драма, мелодрама, комедия, 2002] HDRip, Mvo

salma3

22 | 3

1.46 ГБ


Начать новую тему Ответить на тему  [ 1 сообщение ] 




Для Мосгорсуда, Роскомнадзора и рекламодателей:: mosgorsud-torrent[собачка]yandex.ru