Торрент файл
скачать торрент магнет ссылка Добавлен: 30 дек 2012, 20:03
Размер: 1.46 ГБ
Сидеров: 2
Личеров: 5
Статус: (salma3)
Автор

СообщениеДобавлено: 30 дек 2012, 20:03 

Не в сети
Супермодератор
Аватара пользователя
Дата регистрации:
15 фев 2012, 16:44
Возраст: 27
Спасибо: 5143 / 2090
Сообщения: 17499
«The business of pleasure.»
Париж / Paris

Год выпуска: 2003
Страна: США
Жанр:боевик, драма, мелодрама
Продолжительность: 01:28:30
Перевод: Профессиональный (многоголосый, закадровый)
Оригинальная аудиодорожка: английский
Субтитры: русский
Режиссер: Сэм Кит / Sam Kieth
В ролях: Чед Аллен, Бай Лин, Джеймс Руссо, Рон Джереми, Бифф Йеджер, Нэнси Фергюсон, Белинда Веймауф, Рэймонд Ма, Джени Чуа, Мими Сэвадж...

Описание: Неопытный детектив Джейсон Барток попал в беду. У него полная сумка ворованных денег, да к тому же он нечаянно подстрелил своего напарника. Страшно напуганный и мучающийся от угрызений совести, он обещает разыскать любовницу своего друга — прекрасную китаянку и избавиться от половины денег.
Отчаянные поиски открывают перед ним грязный коррумпированный мир Лос-Анджелеса и Лас-Вегаса, где он и находит очаровательную Линду, торгующую своим телом в местном борделе. Линда вместе с Джейсоном сбегает от своих «хозяев» и кажется, мир начинает приобретать яркие краски.
Но ловушка еще не захлопнулась и сумасшедшая мечта о счастливой жизни в Париже, слабо мерцающая в конце темного тоннеля и манящая в голубые дали, тускнеет, словно ночное небо Вегаса с приходом неумолимого рассвета…




Исходник: DVD5 R5
Тип релиза: DVDRip
Контейнер: AVI
Видео: 704x528 (4:3), 23.976 fps, XviD ~ 1578 kbps avg, 0.170 bit/pixel
Аудио 1: 48 kHz, AC3, 6 ch, 384.00 kbps, русский
Аудио 2: 48 kHz, AC3, 6 ch, 384.00 kbps, английский
Формат субтитров: SoftSub (srt)

Раздача от:

Общее
Полное имя: Parizh.2003.P.DVDRip_[Youtracker]_by_avproh.avi
Формат: AVI
Формат/Информация: Audio Video Interleave
Размер файла: 1,46 Гбайт
Продолжительность: 1 ч. 28 м.
Общий поток: 2361 Кбит/сек
Программа кодирования: VirtualDubMod 1.5.10.3 (build 2550/release)
Библиотека кодирования: VirtualDubMod build 2550/release

Видео
Идентификатор: 0
Формат: MPEG-4 Visual
Профиль формата: Advanced Simple@L5
Параметр BVOP формата: 1
Параметр QPel формата: Нет
Параметр GMC формата: Без точки перехода
Параметр матрицы формата: Выборочная
Идентификатор кодека: XVID
Идентификатор кодека/Подсказка: XviD
Продолжительность: 1 ч. 28 м.
Битрейт: 1578 Кбит/сек
Ширина: 704 пикселя
Высота: 528 пикселей
Соотношение сторон: 4:3
Частота кадров: 25,000 кадров/сек
Цветовое пространство: YUV
Субдискретизация насыщенности: 4:2:0
Битовая глубина: 8 бит
Тип развёртки: Прогрессивная
Метод сжатия: С потерями
Бит/(Пиксели*Кадры): 0.170
Размер потока: 999 Мбайт (67%)
Библиотека кодирования: XviD 65

Аудио #1
Идентификатор: 1
Формат: AC-3
Формат/Информация: Audio Coding 3
Расширение режима: CM (complete main)
Параметр Endianness формата: Big
Идентификатор кодека: 2000
Продолжительность: 1 ч. 28 м.
Вид битрейта: Постоянный
Битрейт: 384 Кбит/сек
Каналы: 6 каналов
Расположение каналов: Front: L C R, Side: L R, LFE
Частота: 48,0 КГц
Битовая глубина: 16 бит
Метод сжатия: С потерями
Размер потока: 243 Мбайт (16%)
Выравнивание: Разделение по промежуткам
Продолжительность промежутка: 40мс. (1,00 видеокадр)
Время предзагрузки промежутка: 500мс.

Аудио #2
Идентификатор: 2
Формат: AC-3
Формат/Информация: Audio Coding 3
Расширение режима: CM (complete main)
Параметр Endianness формата: Big
Идентификатор кодека: 2000
Продолжительность: 1 ч. 28 м.
Вид битрейта: Постоянный
Битрейт: 384 Кбит/сек
Каналы: 6 каналов
Расположение каналов: Front: L C R, Side: L R, LFE
Частота: 48,0 КГц
Битовая глубина: 16 бит
Метод сжатия: С потерями
Размер потока: 243 Мбайт (16%)
Выравнивание: Разделение по промежуткам
Продолжительность промежутка: 40мс. (1,00 видеокадр)
Время предзагрузки промежутка: 500мс.






реклама партнёра


Вернуться к началу
 Профиль Отправить личное сообщение  
 
   Похожие торренты   Автор   Торрент   Размер 
В этой теме нет новых непрочитанных сообщений. Париж, я люблю тебя / Paris, je t'aime [мелодрама, комедия, 2006] BDRip, Mvo

salma3

39 | 5

2.18 ГБ

В этой теме нет новых непрочитанных сообщений. Прощай, Париж / Adieu Paris [драма, 2013] HDRip, Mvo [НТВ+]

Dracon

153 | 6

1.37 ГБ

В этой теме нет новых непрочитанных сообщений. Прощай, Париж / Adieu Paris [драма, 2013] BDRip 720p, Mvo [НТВ+]

Dracon

30 | 5

4.5 ГБ

В этой теме нет новых непрочитанных сообщений. Не видать нам Париж, как своих ушей / We'll Never Have Paris (Саймон Хелберг, Жослин Таун) [мелодрама, комедия, 2014] HDTVRip, dub [чистый звук]

Dracon

11 | 0

1.37 ГБ

В этой теме нет новых непрочитанных сообщений. Не видать нам Париж, как своих ушей / We'll Never Have Paris (Саймон Хелберг, Жослин Таун) [мелодрама, комедия, 2014] BDRip 1080p, dub [чистый звук]

Dracon

47 | 5

7.78 ГБ

В этой теме нет новых непрочитанных сообщений. Не видать нам Париж, как своих ушей / We'll Never Have Paris (Саймон Хелберг, Жослин Таун) [мелодрама, комедия, 2014] BDRip 720p, dub [чистый звук]

Dracon

427 | 29

4.49 ГБ

В этой теме нет новых непрочитанных сообщений. Paris-Amsterdam capitales du sexe / Столицы секса Париж и Амстердам [1998 г. All Sex, Anal, Oral DVDRip]

max77777

4 | 2

1.98 ГБ


Начать новую тему Ответить на тему  [ 1 сообщение ] 




Для Мосгорсуда, Роскомнадзора и рекламодателей:: mosgorsud-torrent[собачка]yandex.ru