Торрент файл
скачать торрент магнет ссылка Добавлен: 30 дек 2012, 16:30
Размер: 1.46 ГБ
Сидеров: 0
Личеров: 1
Статус: (salma3)
Автор

СообщениеДобавлено: 30 дек 2012, 16:30 

Не в сети
Супермодератор
Аватара пользователя
Дата регистрации:
15 фев 2012, 16:44
Возраст: 27
Спасибо: 5140 / 2090
Сообщения: 17470
Покорить высоту / Take It to the Limit

Год выпуска: 2000
Страна: США
Жанр:семейный
Продолжительность: 01:19:07
Перевод: Профессиональный (многоголосый, закадровый)
Оригинальная аудиодорожка: английский
Субтитры: русский
Режиссер: Сэм Кит / Sam Kieth
В ролях: Джейсон Бортц, Лео Фицпатрик, Джон Марло, Гретель Ренфелдт

Описание: Трудный подросток был послан к своему дяде в горах в целях перевоспитания. Однако вместо того, чтобы перевоспитываться, он присоединяется к группе смертельно рискующих скалолазов, чтобы дойти до предела своих возможностей…




Исходник: DVD5 R5
Тип релиза: DVDRip
Контейнер: AVI

Видео: 704x512 (4:3), 23.976 fps, XviD ~ 2237 kbps avg, 0.251 bit/pixel
Аудио 1: 48 kHz, AC3, 2 ch, 192.00 kbps, русский
Аудио 2: 48 kHz, AC3, 2 ch, 192.00 kbps, английский
Формат субтитров: SoftSub (srt)

Раздача от:

Общее
Полное имя: Pokorit.vysotu.2000.P.DVDRip_[Youtracker]_by_avprohPokorit.vysotu.2000.P.DVDRip_[Youtracker]_by_avproh.avi
Формат: AVI
Формат/Информация: Audio Video Interleave
Размер файла: 1,46 Гбайт
Продолжительность: 1 ч. 19 м.
Общий поток: 2633 Кбит/сек
Программа кодирования: VirtualDubMod 1.5.10.3 (build 2550/release)
Библиотека кодирования: VirtualDubMod build 2550/release

Видео
Идентификатор: 0
Формат: MPEG-4 Visual
Профиль формата: Advanced Simple@L5
Параметр BVOP формата: 1
Параметр QPel формата: Нет
Параметр GMC формата: Без точки перехода
Параметр матрицы формата: Выборочная
Идентификатор кодека: XVID
Идентификатор кодека/Подсказка: XviD
Продолжительность: 1 ч. 19 м.
Битрейт: 2237 Кбит/сек
Ширина: 704 пикселя
Высота: 528 пикселей
Соотношение сторон: 4:3
Частота кадров: 23,976 кадра/сек
Цветовое пространство: YUV
Субдискретизация насыщенности: 4:2:0
Битовая глубина: 8 бит
Тип развёртки: Прогрессивная
Метод сжатия: С потерями
Бит/(Пиксели*Кадры): 0.251
Размер потока: 1,24 Гбайт (85%)
Библиотека кодирования: XviD 65

Аудио #1
Идентификатор: 1
Формат: AC-3
Формат/Информация: Audio Coding 3
Расширение режима: CM (complete main)
Параметр Endianness формата: Big
Идентификатор кодека: 2000
Продолжительность: 1 ч. 18 м.
Вид битрейта: Постоянный
Битрейт: 192 Кбит/сек
Каналы: 2 канала
Расположение каналов: Front: L R
Частота: 48,0 КГц
Битовая глубина: 16 бит
Метод сжатия: С потерями
Размер потока: 108 Мбайт (7%)
Выравнивание: Разделение по промежуткам
Продолжительность промежутка: 42мс. (1,01 видеокадр)
Время предзагрузки промежутка: 500мс.

Аудио #2
Идентификатор: 2
Формат: AC-3
Формат/Информация: Audio Coding 3
Расширение режима: CM (complete main)
Параметр Endianness формата: Big
Идентификатор кодека: 2000
Продолжительность: 1 ч. 18 м.
Вид битрейта: Постоянный
Битрейт: 192 Кбит/сек
Каналы: 2 канала
Расположение каналов: Front: L R
Частота: 48,0 КГц
Битовая глубина: 16 бит
Метод сжатия: С потерями
Размер потока: 108 Мбайт (7%)
Выравнивание: Разделение по промежуткам
Продолжительность промежутка: 42мс. (1,01 видеокадр)
Время предзагрузки промежутка: 500мс.






реклама партнёра


Вернуться к началу
 Профиль Отправить личное сообщение  
 
   Похожие торренты   Автор   Торрент   Размер 
В этой теме нет новых непрочитанных сообщений. Вертикальный предел / Vertical Limit [Боевик, триллер, приключения, 2000] BDRip 720p, Dub+Sub

salma3

42 | 9

5.9 ГБ

В этой теме нет новых непрочитанных сообщений. Вертикальный предел / Vertical Limit [боевик, триллер, приключения, 2000] BDRemux 1080p, Dub+Mvo+Avo+Sub

salma3

17 | 14

33.48 ГБ

В этой теме нет новых непрочитанных сообщений. Волшебный Пудинг / The Magic Pudding [мультфильм, семейный, приключения, 2000] DVDRip, Mvo

salma3

6 | 1

1.45 ГБ

В этой теме нет новых непрочитанных сообщений. Лучшее лето / Den bästa sommaren [драма, комедия, семейный, 2000] DVDRip, Avo

salma3

68 | 3

1.35 ГБ

В этой теме нет новых непрочитанных сообщений. Анна и король / Anna and the King [Мультфильм, приключения, семейный, история, 2000] DVDRip, dub

salma3

21 | 4

655.29 МБ

В этой теме нет новых непрочитанных сообщений. Scar Limit - Threshold [2012, Industrial, EBM, MP3]

PriZraK

0 | 1

180.99 МБ

В этой теме нет новых непрочитанных сообщений. Zenit - The Chandrasekhar Limit [2013, Neo-Progressive Rock, MP3]

PriZraK

0 | 1

160.53 МБ


Начать новую тему Ответить на тему  [ 1 сообщение ] 




Для Мосгорсуда, Роскомнадзора и рекламодателей:: mosgorsud-torrent[собачка]yandex.ru