Торрент файл
скачать торрент магнет ссылка Добавлен: 27 дек 2012, 10:25
Размер: 1.45 ГБ
Сидеров: 0
Личеров: 3
Статус: (Dracon)
Автор

СообщениеДобавлено: 27 дек 2012, 10:25 

Не в сети
Зам. Админа
Аватара пользователя
Дата регистрации:
02 дек 2010, 12:39
Спасибо: 12623 / 214
Сообщения: 28012
«First they took his daughter. Now they're coming for him.»



Год выпуска: 2012
Режиссер: Оливье Мегатон


Актеры: Лиам Нисон, Мэгги Грэйс, Фамке Янссен, Лиленд Орсер, Джон Грайз, Д.Б. Суини, Люк Граймс, Раде Шербеджия, Кеворк Маликян, Ален Фиглаж


Описание фильма:
Брайану Миллсу придется расхлебывать последствия своих действий. Спасая свою дочь, он убил главаря банды, у которого — сюрприз! — есть отец по имени Мурад. Мурад жаждет отмщения и описывается как человек, отдающий приказы, но сам никогда никому не подчиняющийся. Мурад берет в заложники Миллса с супругой, и тут уже Ким Миллс нужно будет спасать своих родителей.


Производство: Grive Productions / Canal+ / Europa Corp. [Франция]
Жанр:Боевик, триллер, криминал
Перевод: Дублированный | Чистый звук
Субтитры: Отсутствуют


Продолжительность: 01:32:40
Качество: WEB-DLRip-AVC
Формат: MKV
Видео: 1024x428, 23,976 кадра/сек, 1854 kbps, Bit/Pixel: 0.176
Аудио: AC3, 6 сh, 384 kbps [Русский]


Релиз: NNM-Club


Формат : Matroska
Версия формата : Version 4 / Version 2
Размер файла : 1,45 Гбайт
Продолжительность : 1 ч. 32 м.
Общий поток : 2239 Кбит/сек
Дата кодирования : UTC 2010-02-22 21:41:31
Программа кодирования : mkvmerge v5.9.0 ('On The Loose') built on Dec 9 2012 15:37:01
Библиотека кодирования : libebml v1.3.0 + libmatroska v1.4.0

Видео
Идентификатор : 1
Формат : AVC
Формат/Информация : Advanced Video Codec
Профиль формата : High@L4.1
Параметр CABAC формата : Да
Параметр ReFrames формата : 11 кадров
Идентификатор кодека : V_MPEG4/ISO/AVC
Продолжительность : 1 ч. 32 м.
Битрейт : 1854 Кбит/сек
Ширина : 1024 пикселя
Высота : 428 пикселей
Соотношение сторон : 2,40:1
Режим частоты кадров : Постоянный
Частота кадров : 23,976 кадра/сек
Цветовое пространство : YUV
Субдискретизация насыщенности : 4:2:0
Битовая глубина : 8 бит
Тип развёртки : Прогрессивная
Бит/(Пиксели*Кадры) : 0.176
Размер потока : 1,17 Гбайт (81%)
Библиотека кодирования : x264 core 125 r2208 d9d2288
Настройки программы : cabac=1 / ref=11 / deblock=1:-2:-2 / analyse=0x3:0x133 / me=umh / subme=10 / psy=1 / psy_rd=1.05:0.05 / mixed_ref=1 / me_range=32 / chroma_me=1 / trellis=2 / 8x8dct=1 / cqm=0 / deadzone=21,11 / fast_pskip=0 / chroma_qp_offset=-3 / threads=12 / lookahead_threads=2 / sliced_threads=0 / nr=0 / decimate=1 / interlaced=0 / bluray_compat=0 / constrained_intra=0 / bframes=9 / b_pyramid=2 / b_adapt=2 / b_bias=0 / direct=3 / weightb=1 / open_gop=0 / weightp=2 / keyint=240 / keyint_min=23 / scenecut=40 / intra_refresh=0 / rc_lookahead=120 / rc=2pass / mbtree=1 / bitrate=1854 / ratetol=1.0 / qcomp=0.65 / qpmin=0 / qpmax=69 / qpstep=4 / cplxblur=20.0 / qblur=0.5 / ip_ratio=1.40 / aq=2:0.80
Язык : English
Default : Да
Forced : Нет

Аудио
Идентификатор : 2
Формат : AC-3
Формат/Информация : Audio Coding 3
Расширение режима : CM (complete main)
Параметр Endianness формата : Big
Идентификатор кодека : A_AC3
Продолжительность : 1 ч. 32 м.
Вид битрейта : Постоянный
Битрейт : 384 Кбит/сек
Каналы : 6 каналов
Расположение каналов : Front: L C R, Side: L R, LFE
Частота : 48,0 КГц
Битовая глубина : 16 бит
Метод сжатия : С потерями
Размер потока : 255 Мбайт (17%)
Язык : Russian
Default : Да
Forced : Нет

Меню
00:00:00.000 : en:Chapter 1
00:04:16.000 : en:Chapter 2
00:07:24.000 : en:Chapter 3
00:08:51.000 : en:Chapter 4
00:12:45.000 : en:Chapter 5
00:16:00.000 : en:Chapter 6
00:19:41.000 : en:Chapter 7
00:22:06.000 : en:Chapter 8
00:25:11.000 : en:Chapter 9
00:30:23.000 : en:Chapter 10
00:34:48.000 : en:Chapter 11
00:38:07.000 : en:Chapter 12
00:41:29.000 : en:Chapter 13
00:45:38.000 : en:Chapter 14
00:50:36.000 : en:Chapter 15
00:56:37.000 : en:Chapter 16
01:00:21.000 : en:Chapter 17
01:04:41.000 : en:Chapter 18
01:07:07.000 : en:Chapter 19
01:10:28.000 : en:Chapter 20
01:15:44.000 : en:Chapter 21
01:19:28.000 : en:Chapter 22
01:23:06.000 : en:Chapter 23
01:26:02.000 : en:Chapter 24





реклама партнёра


Вернуться к началу
 Профиль  
 
   Похожие торренты   Автор   Торрент   Размер 
В этой теме нет новых непрочитанных сообщений. Заложница 3 / Taken 3 (Оливье Мегатон) [боевик, триллер, драма, криминал, 2012] HDRip, dub [чистый звук / EXTENDED]

Dracon

7 | 5

1.37 ГБ

В этой теме нет новых непрочитанных сообщений. Заложница 3 / Taken 3 (Оливье Мегатон) [Боевик, Триллер, 2014] HDTVRip, dub [Чистый звук]

Dracon

114 | 4

2.05 ГБ

В этой теме нет новых непрочитанных сообщений. Заложница 3 / Taken 3 (Оливье Мегатон) [Боевик, Триллер, 2014] HDTVRip, dub [Чистый звук]

Dracon

5 | 4

700.54 МБ

В этой теме нет новых непрочитанных сообщений. Заложница 3 / Taken 3 (Оливье Мегатон) [Боевик, Триллер, 2014] HDTVRip, dub [Чистый звук]

Dracon

29 | 3

1.37 ГБ

В этой теме нет новых непрочитанных сообщений. Заложница 3 / Taken 3 (Оливье Мегатон) [Боевик, Триллер, 2014] HDTVRip 1080p, dub [чистый звук]

Dracon

67 | 3

5.94 ГБ

В этой теме нет новых непрочитанных сообщений. Заложница 3 / Taken 3 (Оливье Мегатон) [Боевик, Триллер, 2014] HDTVRip 720p, dub [чистый звук]

Dracon

29 | 4

3.98 ГБ

В этой теме нет новых непрочитанных сообщений. Джентльмен грабитель / Electric Slide (Тристан Паттерсон) [Боевик, Триллер, Драма, Криминал, Биография, 2014] WEB-DLRip, dub [чистый звук]

Dracon

7 | 0

1.37 ГБ


Начать новую тему Ответить на тему  [ 1 сообщение ] 




Для Мосгорсуда, Роскомнадзора и рекламодателей:: mosgorsud-torrent[собачка]yandex.ru