Торрент файл
скачать торрент магнет ссылка Добавлен: 27 дек 2012, 09:57
Размер: 2.19 ГБ
Сидеров: 2
Личеров: 2
Статус: (Dracon)
Автор

СообщениеДобавлено: 27 дек 2012, 09:57 

Не в сети
Зам. Админа
Аватара пользователя
Дата регистрации:
02 дек 2010, 12:39
Спасибо: 12623 / 214
Сообщения: 28012

Год выхода: 2011
Жанр:Драма, комедия
Режиссер: Седрик Клапиш
В ролях: Карин Вьяр, Жилль Леллуш, Одри Лами, Жан-Пьер Мартен, Рафаэль Годин, Фред Улиссе, Кевин Бишоп, Флави Батай, Тим Пиготт-Смит, Филипп Лефевр, Зинедин Суалем, Эндрю Прайс, Сюзанн Фон Айхингер

Сюжет фильма: Франция. Дюнкерк. Потеряв свою работу, мать решает оставить своего мужа и детей и отправляется на заработки в Париж. В столице она знакомится и поступает на работу горничной к биржевому брокеру. Там она вынуждена существовать в полностью чуждой для себя среде, и эта случайная встреча полностью меняет ее жизнь навсегда.

Продолжительность: 01:49:03
Перевод: Профессиональный (двухголосый закадровый) НТВ+
Выпущено: Франция, Banque Postale Image 4, C.R.R.A.V. Nord Pas de Calais, Canal+ [fr], Ce Qui Me Meut Motion Pictures

Качество: BDRip [720p]
Видео: 1280x544, 2679 Кбит/сек, 23,976 кадр/сек, AVC, x264, 2,35:1, 0.160 Бит/[Пиксели*Кадры], 2pass
Аудио: AC-3, 192 Кбит/сек, 2 канала(ов), 48,0 КГц
Размер: 2,19 ГБ

Бюджет Фильма: €7 880 000
Кассовые сборы: -

Релиз от:








Общее
Уникальный идентификатор: 204152236631987960484735742532584706457 (0x99964A63141674E8A373448950EB9199)
Полное имя: A:РаздачиMa.part.du.gâteau.2011.x264.BDRip.720p.P2.mkv
Формат: Matroska
Версия формата: Version 2
Размер файла: 2,19 Гбайт
Продолжительность: 1 ч. 49 м.
Общий поток: 2872 Кбит/сек
Дата кодирования: UTC 2012-12-04 18:18:06
Программа кодирования: mkvmerge v5.5.0 ('Healer') built on Apr6 2012 21:43:24
Библиотека кодирования: libebml v1.2.3 + libmatroska v1.3.0

Видео
Идентификатор: 1
Формат: AVC
Формат/Информация: Advanced Video Codec
Профиль формата: High@L3.1
Параметр CABAC формата: Да
Параметр ReFrames формата: 4 кадра
Идентификатор кодека: V_MPEG4/ISO/AVC
Продолжительность: 1 ч. 49 м.
Битрейт: 2679 Кбит/сек
Ширина: 1280 пикселей
Высота: 544 пикселя
Соотношение сторон: 2,35:1
Соотношение сторон в оригинале: 2,35:1
Частота кадров: 23,976 кадра/сек
Цветовое пространство: YUV
Субдискретизация насыщенности: 4:2:0
Битовая глубина: 8 бит
Тип развёртки: Прогрессивная
Бит/(Пиксели*Кадры): 0.160
Размер потока: 2,00 Гбайт (91%)
Заголовок: Моя часть пирога
Библиотека кодирования: x264 core 129 r2230 1cffe9f
Настройки программы: cabac=1 / ref=3 / deblock=1:0:0 / analyse=0x3:0x113 / me=hex / subme=7 / psy=1 / psy_rd=1.00:0.00 / mixed_ref=1 / me_range=16 / chroma_me=1 / trellis=1 / 8x8dct=1 / cqm=0 / deadzone=21,11 / fast_pskip=1 / chroma_qp_offset=-2 / threads=12 / lookahead_threads=2 / sliced_threads=0 / nr=0 / decimate=1 / interlaced=0 / bluray_compat=0 / constrained_intra=0 / bframes=3 / b_pyramid=2 / b_adapt=1 / b_bias=0 / direct=1 / weightb=1 / open_gop=0 / weightp=2 / keyint=240 / keyint_min=23 / scenecut=40 / intra_refresh=0 / rc_lookahead=40 / rc=2pass / mbtree=1 / bitrate=2679 / ratetol=1.0 / qcomp=0.60 / qpmin=10 / qpmax=51 / qpstep=4 / cplxblur=20.0 / qblur=0.5 / ip_ratio=1.40 / aq=1:1.00
Язык: English
Default: Да
Forced: Нет

Аудио
Идентификатор: 2
Формат: AC-3
Формат/Информация: Audio Coding 3
Расширение режима: CM (complete main)
Идентификатор кодека: A_AC3
Продолжительность: 1 ч. 49 м.
Вид битрейта: Постоянный
Битрейт: 192 Кбит/сек
Каналы: 2 канала
Расположение каналов: Front: L R
Частота: 48,0 КГц
Битовая глубина: 16 бит
Метод сжатия: С потерями
Размер потока: 150 Мбайт (7%)
Заголовок: Профессиональный двухголосый
Язык: Russian
Default: Да
Forced: Нет




реклама партнёра


Вернуться к началу
 Профиль  
 
   Похожие торренты   Автор   Торрент   Размер 
В этой теме нет новых непрочитанных сообщений. Атлант расправил плечи: Часть 3 / Atlas Shrugged: Part III (Джеймс Манера) [Фантастика, драма, детектив, 2014] BDRip 720p, dvo

Dracon

414 | 18

4.5 ГБ

В этой теме нет новых непрочитанных сообщений. Паразит: Часть 2 / Kiseijû: Part 2 (Такаси Ямадзаки) [Фантастика, ужасы, 2015] BDRip 720p, dvo

Dracon

586 | 185

4.49 ГБ

В этой теме нет новых непрочитанных сообщений. Голодные игры: Сойка-пересмешница. Часть I / The Hunger Games: Mockingjay - Part 1 (Френсис Лоуренс) [Фантастика, Приключения, 2014] BDRip 720p, Dub [iTunes]

Dracon

13 | 4

4.61 ГБ

В этой теме нет новых непрочитанных сообщений. Голодные игры: Сойка-пересмешница. Часть I / The Hunger Games: Mockingjay - Part 1 1(Френсис Лоуренс) [Фантастика, Приключения, 2014] BDRip 720p, dub [Чистый звук]

Dracon

20 | 5

5.63 ГБ

В этой теме нет новых непрочитанных сообщений. Яркая Тихая: часть 1 / Chihayafuru [драма, мелодрама, комедия, 2016] BDRip 720p, Avo

salma3

56 | 16

4.73 ГБ

В этой теме нет новых непрочитанных сообщений. Восхождение пехотинца. Часть II / Rise of the Footsoldier Part II [криминал, 2015] BDRip, AVO

salma3

199 | 43

1.46 ГБ

В этой теме нет новых непрочитанных сообщений. Голодные игры: Сойка-пересмешница. Часть II / The Hunger Games: Mockingjay - Part 2 [фантастика, триллер, военный, 2015] BDRip-AVC, Dub [iTunes]

salma3

56 | 27

2.85 ГБ


Начать новую тему Ответить на тему  [ 1 сообщение ] 




Для Мосгорсуда, Роскомнадзора и рекламодателей:: mosgorsud-torrent[собачка]yandex.ru