Торрент файл
скачать торрент магнет ссылка Добавлен: 26 дек 2012, 23:59
Размер: 745.15 МБ
Сидеров: 56
Личеров: 7
Статус: (salma3)
Автор

СообщениеДобавлено: 26 дек 2012, 23:59 

Не в сети
Супермодератор
Аватара пользователя
Дата регистрации:
15 фев 2012, 16:44
Возраст: 27
Спасибо: 5121 / 2089
Сообщения: 17342

Хрупкость / Frágiles

Год выхода: 2005
Жанр: ужасы, триллер
Режиссер: Жауме Балагуэро
В ролях: Калиста Флокхарт, Ричард Роксбург, Елена Анайя, Джемма Джонс, Ясмин Мерфи, Колин МакФарлэйн, Майкл Пеннингтон, Дэниэл Ортиз

О фильме:
Старинная детская больница «Мерси Фолз» закрывается. Но больничные стены хранят свои секреты. Нечто страшное, полное боли и ненависти, пробуждается к жизни. Дети нервничают и очень напуганы чем-то неосязаемым, невообразимым…
Они называют это «механической девочкой» и уверяют, что она живет наверху, на 3 м этаже. На том самом, который был заперт и отделен от остальной части больницы вот уже 40 лет назад. С каждым часом ее присутствие становится все более очевидным. Страх и ужас поселился в тени больничных коридоров.



Страна: Испания, Великобритания
Продолжительность: 01:41:32
Перевод: Профессиональный (многоголосый закадровый) НТВ
Файл
Кодек: XviD
Качество: BDRip
Видео: 688x288, 24 fps, 889 Kbps, 0.187 Bits/Pixel
Звук: MP3, 48 KHz, 128 Kbps, 2 channels

Семпл

General
Complete name : D:Hrupkost'.2005.BDRip.XviD.745mb.avi
Format : AVI
Format/Info : Audio Video Interleave
File size : 745 MiB
Duration : 1h 41mn
Overall bit rate : 1 026 Kbps
Writing application : VirtualDubMod 1.5.10.2 (build 2540/release)
Writing library : VirtualDubMod build 2540/release
Video
ID : 0
Format : MPEG-4 Visual
Format profile : Advanced Simple@L5
Format settings, BVOP : 2
Format settings, QPel : No
Format settings, GMC : No warppoints
Format settings, Matrix : Default (H.263)
Muxing mode : Packed bitstream
Codec ID : XVID
Codec ID/Hint : XviD
Duration : 1h 41mn
Bit rate : 889 Kbps
Width : 688 pixels
Height : 288 pixels
Display aspect ratio : 2.40:1
Frame rate : 24.000 fps
Color space : YUV
Chroma subsampling : 4:2:0
Bit depth : 8 bits
Scan type : Progressive
Compression mode : Lossy
Bits/(Pixel*Frame) : 0.187
Stream size : 645 MiB (87%)
Writing library : XviD 1.2.1 (UTC 2008-12-04)
Audio
ID : 1
Format : MPEG Audio
Format version : Version 1
Format profile : Layer 3
Codec ID : 55
Codec ID/Hint : MP3
Duration : 1h 41mn
Bit rate mode : Constant
Bit rate : 128 Kbps
Channel(s) : 2 channels
Sampling rate : 48.0 KHz
Compression mode : Lossy
Stream size : 93.0 MiB (12%)
Alignment : Aligned on interleaves
Interleave, duration : 42 ms (1.00 video frame)
Interleave, preload duration : 504 ms
Writing library : LAME3.98r
Encoding settings : -m s -V 4 -q 2 -lowpass 17 -b 128









реклама партнёра


Вернуться к началу
 Профиль Отправить личное сообщение  
 
   Похожие торренты   Автор   Торрент   Размер 
В этой теме нет новых непрочитанных сообщений. Болото / Яд / Venom [ужасы, триллер, 2005] BDRip, Mvo+Dvo+Avo

salma3

6 | 9

1.41 ГБ

В этой теме нет новых непрочитанных сообщений. Болото / Venom [Ужасы, триллер, 2005] BDRip 1080p, Mvo+Dvo+Avo+Sub

salma3

75 | 5

5.75 ГБ

В этой теме нет новых непрочитанных сообщений. Один в темноте / Alone in the Dark [Ужасы, триллер, фантастика, 2005] BDRip 720p, Dub+Mvo+Dvo+Avo

salma3

17 | 2

6.5 ГБ

В этой теме нет новых непрочитанных сообщений. Ужас Амитивилля / The Amityville Horror [Ужасы, триллер, 2005] BDRip 720p, Dub+Dvo+Sub

salma3

67 | 14

7.03 ГБ

В этой теме нет новых непрочитанных сообщений. Бугимен / Boogeyman [ужасы, триллер, драма, детектив, 2005] BDRip 1080р, Dub

salma3

19 | 4

8.9 ГБ

В этой теме нет новых непрочитанных сообщений. Белый шум / White Noise [Ужасы, Триллер, Драма, Детектив, 2005] BDRip 1080p, Dub+Sub

salma3

18 | 4

10.61 ГБ

В этой теме нет новых непрочитанных сообщений. Игра в прятки / Hide and Seek [Ужасы, триллер, детектив, 2005] BDRip 1080p, Dub

salma3

21 | 115

11.25 ГБ


Начать новую тему Ответить на тему  [ 1 сообщение ] 




Для Мосгорсуда, Роскомнадзора и рекламодателей:: mosgorsud-torrent[собачка]yandex.ru