Торрент файл
скачать торрент магнет ссылка Добавлен: 26 дек 2012, 20:06
Размер: 704.73 МБ
Сидеров: 9
Личеров: 3
Статус: (Dracon)
Автор

СообщениеДобавлено: 26 дек 2012, 20:06 

Не в сети
Зам. Админа
Аватара пользователя
Дата регистрации:
02 дек 2010, 12:39
Спасибо: 12460 / 214
Сообщения: 27968

Страна: США
Жанр:Драма
Год выпуска: 2011
Продолжительность: 01:43:01
Перевод: Одноголосый закадровый (Озвучка Василий Кошкин)

Режиссер: Каспер Андреас / Casper Andreas

В ролях: Matthew Ludwinski / Мэтью Людвинский, Allison Lane / Эллисон Лэйн,
Майкл Медико / Michael Medico, Каспер Андреас / Casper Andreas, Джесси Арчер / Jesse Archer и др.

Описание: Этот фильм непредвзятая и сексуальная история о парне, стремящегося к славе и признанию в Голливуде!
Молодой и красивый Адам, только что переехал из Нью-Йорка в Лос-Анджелес с мечтой стать звездой.
Адам устраивается на разную малоинтересную работу, пытаясь обеспечить себе постоянный заработок,
чтобы наконец по настоящему заняться прослушиваниями, которые откроют ему окно, в такой манящий мир кино и телевидения.
Но совсем скоро Адам узнает, что должен будет иметь дело с липкими порно-дельцами, закрытыми гей-знаменитостями и любовниками неудачниками.
Так он начинает терять самого себя, в такой манящей для многих "Стране грез".
Сможет ли он выплыть из этого омута и найдет ли свою любовь, вы узнаете посмотрев этот фильм.

Качество видео: DVDRip
Формат видео: AVI
Видео: XviD; 640x336; 25 fps; ~820 kbps; 0,152 bit/pixel
Аудио: MPEG Audio Layer 3; 48kHz; Stereo; 128 kbps, CBR

СЭМПЛ

Фильм рекомендован для просмотра лицами старше

Общее
Полное имя : Going Down in LA-LA Land (2011) K_I.avi
Формат : AVI
Формат/Информация : Audio Video Interleave
Размер файла : 705 Мбайт
Продолжительность : 1 ч. 43 м.
Общий поток : 956 Кбит/сек

Видео
Идентификатор : 0
Формат : MPEG-4 Visual
Профиль формата : Advanced Simple@L5
Параметр BVOP формата : Нет
Параметр QPel формата : Нет
Параметр GMC формата : Без точки перехода
Параметр матрицы формата : Default (H.263)
Идентификатор кодека : XVID
Идентификатор кодека/Подсказка : XviD
Продолжительность : 1 ч. 43 м.
Битрейт : 818 Кбит/сек
Ширина : 640 пикселей
Высота : 336 пикселей
Соотношение сторон : 1,905
Частота кадров : 25,000 кадров/сек
Цветовое пространство : YUV
Субдискретизация насыщенности : 4:2:0
Битовая глубина : 8 бит
Тип развёртки : Прогрессивная
Метод сжатия : С потерями
Бит/(Пиксели*Кадры) : 0.152
Размер потока : 603 Мбайт (86%)
Библиотека кодирования : XviD 62

Аудио
Идентификатор : 1
Формат : MPEG Audio
Версия формата : Version 1
Профиль формата : Layer 3
Идентификатор кодека : 55
Идентификатор кодека/Подсказка : MP3
Продолжительность : 1 ч. 43 м.
Вид битрейта : Постоянный
Битрейт : 128 Кбит/сек
Каналы : 2 канала
Частота : 48,0 КГц
Метод сжатия : С потерями
Размер потока : 94,4 Мбайт (13%)
Выравнивание : Разделение по промежуткам
Продолжительность промежутка : 41 мс. (1,02 видеокадр)





За помощь в правильном переводе названия фильма, отдельное спасибо enrch321




реклама партнёра


Вернуться к началу
 Профиль  
 
   Похожие торренты   Автор   Торрент   Размер 
В этой теме нет новых непрочитанных сообщений. Wasted Land - Wasted Land [2013, Melodic Death Metal with Folk influences, MP3]

PriZraK

0 | 1

107.78 МБ

В этой теме нет новых непрочитанных сообщений. Земля обетованная / Promised Land [драма, триллер, 2004] DVDRip, Dvo

salma3

99 | 59

1.46 ГБ

В этой теме нет новых непрочитанных сообщений. Рождённые ветром / Sweet Land [Драма, мелодрама, 2005] DVDRip, Mvo

salma3

33 | 3

1.46 ГБ

В этой теме нет новых непрочитанных сообщений. Утонуть на суше / Drowning on Dry Land [драма, мелодрама, комедия, 1999] DVDRip, Mvo

salma3

3 | 4

1.13 ГБ

В этой теме нет новых непрочитанных сообщений. Не их страна, но их война / Patria / No Man's Land (Клас ван Эйкерен / Klaas van Eijkeren) [2014г., Нидерланды, военный, исторический, драма, DVDRip] Sub

Alfredovich

4 | 2

1.44 ГБ

В этой теме нет новых непрочитанных сообщений. Ничья земля / No Man's Land [Триллер, 1987] DVDRip, Dvo+Avo

salma3

7 | 5

1.46 ГБ

В этой теме нет новых непрочитанных сообщений. Земля обетованная / The Land [драма, 2016] WEB-DL 720p, Mvo

salma3

60 | 11

3.17 ГБ


Начать новую тему Ответить на тему  [ 1 сообщение ] 




Для Мосгорсуда, Роскомнадзора и рекламодателей:: mosgorsud-torrent[собачка]yandex.ru