Торрент файл
скачать торрент магнет ссылка Добавлен: 25 дек 2012, 02:23
Размер: 1.37 ГБ
Сидеров: 10
Личеров: 1
Статус: (salma3)
Автор

СообщениеДобавлено: 25 дек 2012, 02:23 

Не в сети
Супермодератор
Аватара пользователя
Дата регистрации:
15 фев 2012, 16:44
Возраст: 28
Спасибо: 6565 / 2130
Сообщения: 43672

Бенни Стаут / Bennie Stout

Год выхода: 2011
Жанр: Семейный, приключения
Режиссер: Йохан Нийенхайс
В ролях: Ханна Вербум, Марейн Беккенк, Курт-Ян де Брайн, Петер Лосси, Дидерик Эббинге, Плин ван Беннеком, Мерель Бут, Фебе Бакема, Ремон ван Дийк, Бас Кейзер, Ирен Мурс

О фильме:
Все дети с нетерпением ждут празднования Рождества. Синт-Николас (голландский Дед Мороз) везет для них подарки из Испании.
Бенни Стаут, бесстрашный и озорной мальчик, мечтает получить в подарок блестящий новый автомобиль с педалью, который он видел в витрине игрушечного магазина. Но больше всего на свете он хочет, чтобы его отец, который поехал на заработки в Испанию, вернулся домой, и вся семья отпраздновала Рождество вместе…
Это оказывается более сложным, чем он думал, и Бенни планирует попасть в мешок для непослушных мальчиков, подарки которых должны отправить назад, в Испанию. Он тайно пишет свое имя в Большой книги Рождества…



Страна: Нидерланды
Студия: Farmhouse Film & TV
Продолжительность: 01:28:19
Перевод: Любительский (одноголосый закадровый) - Вячесла Прошин aka Slay73

Файл
Кодек: XviD
Качество: DVDRip
Видео: 1712 Кбит/с, 720x304
Аудио: АС3, 6 ch, 448 Кбит


Формат: AVI
Формат/Информация: Audio Video Interleave
Профиль формата: OpenDML
Размер файла: 1,37 Гбайт
Продолжительность: 1 ч. 28 м.
Общий поток: 2222 Кбит/сек
Программа кодирования: Lavf54.16.104

Видео
Идентификатор: 0
Формат: MPEG-4 Visual
Профиль формата: Simple@L3
Параметр BVOP формата: Нет
Параметр QPel формата: Нет
Параметр GMC формата: Без точки перехода
Параметр матрицы формата: Default (H.263)
Идентификатор кодека: XVID
Идентификатор кодека/Подсказка: XviD
Продолжительность: 1 ч. 28 м.
Битрейт: 1762 Кбит/сек
Ширина: 720 пикс.
Высота: 304 пикс.
Соотношение сторон: 2,35:1
Частота кадров: 25,000 кадр/сек
Цветовое пространство: YUV
Подвыборка цветности: 4:2:0
Битовая глубина: 8 бит
Тип развёртки: Прогрессивная
Метод сжатия: С потерями
Бит/(Пиксели*Кадры): 0.322
Размер потока: 1,09 Гбайт (79%)
Библиотека кодирования: XviD 64

Аудио
Идентификатор: 1
Формат: AC-3
Формат/Информация: Audio Coding 3
Расширение режима: CM (complete main)
Идентификатор кодека: 2000
Продолжительность: 1 ч. 28 м.
Вид битрейта: Постоянный
Битрейт: 448 Кбит/сек
Каналы: 6 каналов
Расположение каналов: Front: L C R, Side: L R, LFE
Частота: 48,0 КГц
Битовая глубина: 16 бит
Метод сжатия: С потерями
Размер потока: 283 Мбайт (20%)
Выравнивание: Соединение по промежуткам
Продолжительность промежутка: 32мс. (0,80 видеокадр)




реклама партнёра


Вернуться к началу
 Профиль Отправить личное сообщение  
 
   Похожие торренты   Автор   Торрент   Размер 
В этой теме нет новых непрочитанных сообщений. Том и Гек / Tom und Hacke [семейный, приключения, 2012] DVDRip, Avo

salma3

36 | 9

1.5 ГБ

В этой теме нет новых непрочитанных сообщений. Принц и нищий [приключения, семейный, 1972] DVDRip-AVC

salma3

12 | 7

1.45 ГБ

В этой теме нет новых непрочитанных сообщений. Галгамет / Galgameth [фэнтези, приключения, семейный, 1996] DVDRip, Mvo

salma3

37 | 7

1.37 ГБ

В этой теме нет новых непрочитанных сообщений. Альфа и Омега 5: Семейный отдых [Мультфильм, комедия, приключения, семейный, полнометражный, 2015] HDRip, Dub

Dracon

297 | 16

663.21 МБ

В этой теме нет новых непрочитанных сообщений. Железный Ганс / Der Eisenhans [семейный, сказка, приключения, 2011] HDTVRip 1080p, Mvo

salma3

6 | 2

3.13 ГБ

В этой теме нет новых непрочитанных сообщений. Галгамет / Galgamet [Фэнтези, приключения, семейный, детский, 1996] DVDRip, Dvo+Avo

salma3

44 | 6

1.59 ГБ

В этой теме нет новых непрочитанных сообщений. Глаз хищника / Ornens Oje [Исторический, приключения, семейный, 1997] DVDRip, Mvo

salma3

224 | 22

1.62 ГБ


Начать новую тему Ответить на тему  [ 1 сообщение ] 




Для Мосгорсуда, Роскомнадзора и рекламодателей:: mosgorsud-torrent[собачка]yandex.ru