Торрент файл
скачать торрент магнет ссылка Добавлен: 24 дек 2012, 09:40
Размер: 1.37 ГБ
Сидеров: 12
Личеров: 1
Статус: (Dracon)
Автор

СообщениеДобавлено: 24 дек 2012, 09:40 

Не в сети
Зам. Админа
Аватара пользователя
Дата регистрации:
02 дек 2010, 12:39
Спасибо: 12461 / 214
Сообщения: 27968

Год выхода: 2012
Жанр:триллер
Режиссер: Дэвид Уивер
В ролях: Сэмюэл Л. Джексон, Люк Кирби, Рут Негга, Том Уилкинсон, Джил Беллоуз, Аарон Пул, Том МакКэмус, Марта Барнс, Стефен Макинтайр, Алан С. Петерсон

Описание: В центре повествования — мошенник, который отсидел за свои преступления 20 лет и решил завязать. Он встречает молодую женщину, с которой хотел бы иметь совместное будущее, а тут к нему подкатывает сын бывшего подельника, который уговаривает его на последнее дело.



Продолжительность: 01:33:09
Перевод: Авторский - А. Дольский
Субтитры: нет



Качество: HDRip
Формат: AVI
Видео кодек: XviD
Аудио кодек: AC3
Видео:XviD, 1650 Кбит/с, 720x400
Аудио Rus: AC3, 448 kb/s (6 ch)


Перевод А.Дольского состоялся благодаря участникам проекта Пиратка:
KINOGON - Consul - SavineX - leha1975 - mr. Di - _shurik_
Полное имя: D:Samarityanin.2012.P1.HDRip.1400MB.avi
Формат: AVI
Формат/Информация: Audio Video Interleave
Размер файла: 1,37 Гбайт
Продолжительность: 1 ч. 33 м.
Общий поток: 2110 Кбит/сек
Программа кодирования: VirtualDubMod 1.5.10.2 (build 2540/release)
Библиотека кодирования: VirtualDubMod build 2540/release

Видео
Идентификатор: 0
Формат: MPEG-4 Visual
Профиль формата: Advanced Simple@L5
Параметр BVOP формата: 2
Параметр QPel формата: Нет
Параметр GMC формата: Без точки перехода
Параметр матрицы формата: Default (H.263)
Режим смешивания: Сжатый битовый поток
Идентификатор кодека: XVID
Идентификатор кодека/Подсказка: XviD
Продолжительность: 1 ч. 33 м.
Битрейт: 1652 Кбит/сек
Ширина: 720 пикс.
Высота: 400 пикс.
Соотношение сторон: 16:9
Частота кадров: 24,000 кадр/сек
Частота кадров в оригинале: 23,976 кадр/сек
Цветовое пространство: YUV
Подвыборка цветности: 4:2:0
Битовая глубина: 8 бит
Тип развёртки: Прогрессивная
Метод сжатия: С потерями
Бит/(Пиксели*Кадры): 0.239
Размер потока: 1,07 Гбайт (78%)
Библиотека кодирования: XviD 63

Аудио
Идентификатор: 1
Формат: AC-3
Формат/Информация: Audio Coding 3
Расширение режима: CM (complete main)
Идентификатор кодека: 2000
Продолжительность: 1 ч. 33 м.
Вид битрейта: Постоянный
Битрейт: 448 Кбит/сек
Каналы: 6 каналов
Расположение каналов: Front: L C R, Side: L R, LFE
Частота: 48,0 КГц
Битовая глубина: 16 бит
Метод сжатия: С потерями
Размер потока: 298 Мбайт (21%)
Выравнивание: Разделение по промежуткам
Продолжительность промежутка: 42мс. (1,00 видеокадр)
Время предзагрузки промежутка: 500 ms






реклама партнёра


Вернуться к началу
 Профиль  
 
   Похожие торренты   Автор   Торрент   Размер 
В этой теме нет новых непрочитанных сообщений. Мара / Mara [ужасы, триллер, 2012] HDRip, dvo

Dracon

36 | 3

1.37 ГБ

В этой теме нет новых непрочитанных сообщений. Доктор / Doctor / Dakteo [триллер, 2012] HDRip, dvo

Dracon

4 | 4

1.46 ГБ

В этой теме нет новых непрочитанных сообщений. Срок / Livstid [драма, триллер, 2012] HDRip, Mvo

salma3

567 | 19

1.36 ГБ

В этой теме нет новых непрочитанных сообщений. Бездыханные / Breathless [Триллер, криминал, 2012] HDRip, Avo+Sub

salma3

0 | 571

929.94 МБ

В этой теме нет новых непрочитанных сообщений. 6 сюжетов / 6 Plots (Ли Шиэн) [2012, триллер , HDRip] dvo

Nickolas3435

122 | 8

737.98 МБ

В этой теме нет новых непрочитанных сообщений. Слепой / Thaandavam [Боевик, триллер, драма, 2012] HDRip, Avo

salma3

40 | 7

2.05 ГБ

В этой теме нет новых непрочитанных сообщений. Ломка / Resolution [ужасы, триллер, детектив, 2012] HDRip, dub+avo

Dracon

52 | 4

4.62 ГБ


Начать новую тему Ответить на тему  [ 1 сообщение ] 




Для Мосгорсуда, Роскомнадзора и рекламодателей:: mosgorsud-torrent[собачка]yandex.ru