Торрент файл
скачать торрент магнет ссылка Добавлен: 23 дек 2012, 22:05
Размер: 745.35 МБ
Сидеров: 20
Личеров: 3
Статус: (salma3)
Автор

СообщениеДобавлено: 23 дек 2012, 22:05 

Не в сети
Супермодератор
Аватара пользователя
Дата регистрации:
15 фев 2012, 16:44
Возраст: 27
Спасибо: 5135 / 2089
Сообщения: 17409

Шанхайский полдень / Shanghai Noon

Год выхода: 2000
Жанр: боевик, комедия, приключения, вестерн
Режиссер: Том Дей
В ролях: Джеки Чан, Оуэн Уилсон, Люси Лью, Брэндон Мэрилл, Роджер Йуан, Ксандер Беркли, Жунгуан Ю, Я Хи Куи, Эрик Чен, Джейсон Коннери

О фильме:
Когда прекрасную китайскую принцессу похищают, Император отправляет на Дикий Запад троих самых верных и искусных телохранителей. Чон Ванг, естественно…не оказывается в их числе. Но тайными путями ему все-таки удается попасть в воинственную делегацию и оказаться в самом сердце Америки и непредсказуемых событий. Вместе со случайным напарником китайский телохранитель попадает во всевозможные переделки; между делом, он помогает племени Сиу, выкуривает трубку мира, и тут же оказывается на тропе войны, по которой пробегают его многочисленные враги.



Страна: США, Гонконг
Продолжительность: 01:48:32
Перевод: Профессиональный (двухголосый закадровый)

Файл
Кодек: XviD
Качество: HDRip
Видео: 688x384, 23.976 fps, 823 Kbps, 0.13 Bits/Pixel
Звук: MP3, 48 KHz, 128 Kbps, 2 channels

Сэмпл

General
Complete name : D:Shanhajskij.polden'.2000.HDRip.XviD.745mb.avi
Format : AVI
Format/Info : Audio Video Interleave
File size : 745 MiB
Duration : 1h 48mn
Overall bit rate : 960 Kbps
Writing application : VirtualDubMod 1.5.10.2 (build 2540/release)
Writing library : VirtualDubMod build 2540/release
Video
ID : 0
Format : MPEG-4 Visual
Format profile : Advanced Simple@L5
Format settings, BVOP : 2
Format settings, QPel : No
Format settings, GMC : No warppoints
Format settings, Matrix : Default (H.263)
Muxing mode : Packed bitstream
Codec ID : XVID
Codec ID/Hint : XviD
Duration : 1h 48mn
Bit rate : 823 Kbps
Width : 688 pixels
Height : 384 pixels
Display aspect ratio : 16:9
Frame rate : 23.976 fps
Color space : YUV
Chroma subsampling : 4:2:0
Bit depth : 8 bits
Scan type : Progressive
Compression mode : Lossy
Bits/(Pixel*Frame) : 0.130
Stream size : 639 MiB (86%)
Writing library : XviD 1.2.1 (UTC 2008-12-04)
Audio
ID : 1
Format : MPEG Audio
Format version : Version 1
Format profile : Layer 3
Codec ID : 55
Codec ID/Hint : MP3
Duration : 1h 48mn
Bit rate mode : Constant
Bit rate : 128 Kbps
Channel(s) : 2 channels
Sampling rate : 48.0 KHz
Compression mode : Lossy
Stream size : 99.4 MiB (13%)
Alignment : Aligned on interleaves
Interleave, duration : 42 ms (1.00 video frame)
Interleave, preload duration : 504 ms
Writing library : LAME3.98r
Encoding settings : -m s -V 4 -q 2 -lowpass 17 -b 128









реклама партнёра


Вернуться к началу
 Профиль Отправить личное сообщение  
 
   Похожие торренты   Автор   Торрент   Размер 
В этой теме нет новых непрочитанных сообщений. Шанхайский полдень / Shanghai Noon [боевик, комедия, приключения, вестерн, 2000] BDRip-AVC, Dvo

salma3

12 | 3

2.19 ГБ

В этой теме нет новых непрочитанных сообщений. Шанхайский полдень / Shanghai Noon [Боевик, комедия, приключения, вестерн, 2000] Blu-Ray Remux 1080p, Mvo+Sub

salma3

28 | 42

22.5 ГБ

В этой теме нет новых непрочитанных сообщений. Шанхайский полдень / Shanghai Noon [Боевик, комедия, приключения, вестерн, 2000] BDRip, Avo [Гаврилов]

salma3

38 | 3

1.46 ГБ

В этой теме нет новых непрочитанных сообщений. Шанхайские рыцари / Shanghai Knights [боевик, комедия, приключения, вестерн, 2003] BDRip 720р, Dub+Mvo+Sub

salma3

37 | 2

4.86 ГБ

В этой теме нет новых непрочитанных сообщений. Шанхайские рыцари / Shanghai Knights [Боевик, комедия, приключения, вестерн, 2003] BDRip, Avo [Гаврилов]

salma3

34 | 4

1.46 ГБ

В этой теме нет новых непрочитанных сообщений. Шанхайский поцелуй / Shanghai Kiss [драма, мелодрама, комедия, 2007] DVDRip, Mvo

salma3

79 | 8

1.37 ГБ

В этой теме нет новых непрочитанных сообщений. Шанхайский поцелуй / Shanghai Kiss [Комедия, драма, мелодрама, 2007] BDRip 720p, Mvo+Sub

salma3

50 | 12

7.46 ГБ


Начать новую тему Ответить на тему  [ 1 сообщение ] 




Для Мосгорсуда, Роскомнадзора и рекламодателей:: mosgorsud-torrent[собачка]yandex.ru