Торрент файл
скачать торрент магнет ссылка Добавлен: 23 дек 2012, 17:12
Размер: 2.05 ГБ
Сидеров: 45
Личеров: 2
Статус: (drink)
Автор

СообщениеДобавлено: 23 дек 2012, 17:12 

Не в сети
Зам. Админа
Аватара пользователя
Дата регистрации:
02 дек 2010, 12:39
Спасибо: 12458 / 214
Сообщения: 27968

Год выхода: 2012
Жанр: Боевик, Триллер, Криминал
Режиссер: Оливье Мегатон
В ролях: Лиам Нисон, Мэгги Грэйс, Фамке Янссен, Лиленд Орсер, Джон Грайз, Д.Б. Суини, Люк Граймс, Раде Шербеджия, Кеворк Маликян, Ален Фиглаж

О фильме: Брайану Миллсу придется расхлебывать последствия своих действий. Спасая свою дочь, он убил главаря банды, у которого — сюрприз! — есть отец по имени Мурад. Мурад жаждет отмщения и описывается как человек, отдающий приказы, но сам никогда никому не подчиняющийся. Мурад берет в заложники Миллса с супругой, и тут уже Ким Миллс нужно будет спасать своих родителей.



Выпущено: Франция / Europa Corp., Grive Productions, Canal+
Продолжительность: 01:32:40
Перевод: Дублированное [Чистый звук]
Автор рипа: MysTeRy

Кодек: XviD
Качество: WEB-DLRip
Видео: 1996 kb/s, 720x304
Аудио #1: Русский (Dolby AC3, 6 ch) 384 Кбит/сек
Аудио #2: Украинский (Dolby AC3, 6 ch) 384 Кбит/сек
Аудио #3: Английский (Dolby AC3, 6 ch) 384 Кбит/сек
Семпл


Общее
Полное имя: Taken 2.2012.D.WEB-DLRip - MysTeRy.avi
Формат: AVI
Формат/Информация: Audio Video Interleave
Профиль формата: OpenDML
Размер файла: 2,05 Гбайт
Продолжительность: 1 ч. 32 м.
Общий поток: 3168 Кбит/сек
Программа кодирования: VirtualDubMod 1.5.10.3 | http://www.virtualdub-fr.org || (build 2550/release)
Библиотека кодирования: VirtualDubMod build 2550/release

Видео
Идентификатор: 0
Формат: MPEG-4 Visual
Профиль формата: Advanced Simple@L5
Параметр BVOP формата: 2
Параметр QPel формата: Нет
Параметр GMC формата: Без точки перехода
Параметр матрицы формата: Default (MPEG)
Идентификатор кодека: XVID
Идентификатор кодека/Подсказка: XviD
Продолжительность: 1 ч. 32 м.
Битрейт: 1996 Кбит/сек
Ширина: 720 пикселей
Высота: 304 пикселя
Соотношение сторон: 2,35:1
Частота кадров: 23,976 кадра/сек
Цветовое пространство: YUV
Субдискретизация насыщенности: 4:2:0
Битовая глубина: 8 бит
Тип развёртки: Прогрессивная
Метод сжатия: С потерями
Бит/(Пиксели*Кадры): 0.380
Размер потока: 1,29 Гбайт (63%)
Библиотека кодирования: XviD 1.2.1 (UTC 2008-12-04)

Аудио #1
Идентификатор: 1
Формат: AC-3
Формат/Информация: Audio Coding 3
Расширение режима: CM (complete main)
Идентификатор кодека: 2000
Продолжительность: 1 ч. 32 м.
Вид битрейта: Постоянный
Битрейт: 384 Кбит/сек
Каналы: 6 каналов
Расположение каналов: Front: L C R, Side: L R, LFE
Частота: 48,0 КГц
Битовая глубина: 16 бит
Метод сжатия: С потерями
Размер потока: 255 Мбайт (12%)
Выравнивание: Разделение по промежуткам
Продолжительность промежутка: 42мс. (1,00 видеокадр)
Время предзагрузки промежутка: 500мс.

Аудио #2
Идентификатор: 2
Формат: AC-3
Формат/Информация: Audio Coding 3
Расширение режима: CM (complete main)
Идентификатор кодека: 2000
Продолжительность: 1 ч. 32 м.
Вид битрейта: Постоянный
Битрейт: 384 Кбит/сек
Каналы: 6 каналов
Расположение каналов: Front: L C R, Side: L R, LFE
Частота: 48,0 КГц
Битовая глубина: 16 бит
Метод сжатия: С потерями
Размер потока: 253 Мбайт (12%)
Выравнивание: Разделение по промежуткам
Продолжительность промежутка: 42мс. (1,01 видеокадр)
Время предзагрузки промежутка: 500мс.

Аудио #3
Идентификатор: 3
Формат: AC-3
Формат/Информация: Audio Coding 3
Расширение режима: CM (complete main)
Идентификатор кодека: 2000
Продолжительность: 1 ч. 32 м.
Вид битрейта: Постоянный
Битрейт: 384 Кбит/сек
Каналы: 6 каналов
Расположение каналов: Front: L C R, Side: L R, LFE
Частота: 48,0 КГц
Битовая глубина: 16 бит
Метод сжатия: С потерями
Размер потока: 253 Мбайт (12%)
Выравнивание: Разделение по промежуткам
Продолжительность промежутка: 42мс. (1,01 видеокадр)
Время предзагрузки промежутка: 500мс.






реклама партнёра


Вернуться к началу
 Профиль  
 
   Похожие торренты   Автор   Торрент   Размер 
В этой теме нет новых непрочитанных сообщений. Заложница 3 / Taken 3 (Оливье Мегатон) [боевик, триллер, драма, криминал, 2012] HDRip, dub [чистый звук / EXTENDED]

Dracon

7 | 4

1.37 ГБ

В этой теме нет новых непрочитанных сообщений. Заложница 3 / Taken 3 (Оливье Мегатон) [Боевик, Триллер, 2014] HDTVRip, dub [Чистый звук]

Dracon

5 | 3

700.54 МБ

В этой теме нет новых непрочитанных сообщений. Заложница 3 / Taken 3 (Оливье Мегатон) [Боевик, Триллер, 2014] HDTVRip, dub [Чистый звук]

Dracon

29 | 3

1.37 ГБ

В этой теме нет новых непрочитанных сообщений. Заложница 3 / Taken 3 (Оливье Мегатон) [Боевик, Триллер, 2014] HDTVRip, dub [Чистый звук]

Dracon

114 | 4

2.05 ГБ

В этой теме нет новых непрочитанных сообщений. Заложница 3 / Taken 3 (Оливье Мегатон) [Боевик, Триллер, 2014] HDTVRip 720p, dub [чистый звук]

Dracon

18 | 3

3.98 ГБ

В этой теме нет новых непрочитанных сообщений. Заложница 3 / Taken 3 (Оливье Мегатон) [Боевик, Триллер, 2014] HDTVRip 1080p, dub [чистый звук]

Dracon

67 | 3

5.94 ГБ

В этой теме нет новых непрочитанных сообщений. Джентльмен грабитель / Electric Slide (Тристан Паттерсон) [Боевик, Триллер, Драма, Криминал, Биография, 2014] WEB-DLRip, dub [чистый звук]

Dracon

7 | 0

1.37 ГБ


Начать новую тему Ответить на тему  [ 1 сообщение ] 




Для Мосгорсуда, Роскомнадзора и рекламодателей:: mosgorsud-torrent[собачка]yandex.ru